<?xml version="1.0" standalone="no"?>
<!DOCTYPE svg PUBLIC "-//W3C//DTD SVG 1.1//EN" "http://www.w3.org/Graphics/SVG/1.1/DTD/svg11.dtd" >
<svg xmlns="http://www.w3.org/2000/svg" xmlns:xlink="http://www.w3.org/1999/xlink" version="1.1">
<metadata></metadata>
<defs>
<font id="dosislight" horiz-adv-x="999" >
<font-face units-per-em="2048" ascent="1638" descent="-410" />
<missing-glyph horiz-adv-x="409" />
<glyph unicode="&#xfb01;" horiz-adv-x="1005" d="M135 43v1147q0 150 108.5 264.5t299.5 114.5q111 0 207 -38t96 -85q0 -18 -13.5 -36.5t-27.5 -18.5q-10 0 -41 21.5t-87 42t-130 20.5q-162 0 -236.5 -89.5t-74.5 -193.5v-225h274q16 0 28.5 -13.5t12.5 -29.5q0 -18 -12.5 -31.5t-28.5 -13.5h-274v-836 q0 -18 -15.5 -30.5t-38.5 -12.5q-47 0 -47 43zM772 45v881q0 41 47 41q23 0 38 -11.5t15 -29.5v-881q0 -16 -16 -30.5t-36.5 -14.5t-34 14.5t-13.5 30.5z" />
<glyph unicode="&#xfb02;" horiz-adv-x="1024" d="M135 43v1147q0 170 125 274.5t293 104.5q203 0 319 -142v-1382q0 -16 -15 -30.5t-35.5 -14.5t-35 14.5t-14.5 30.5v1354q-88 88 -221 88q-127 0 -221 -82t-94 -213v-225h274q16 0 28.5 -13.5t12.5 -29.5q0 -18 -12.5 -31.5t-28.5 -13.5h-274v-836q0 -18 -15.5 -30.5 t-38.5 -12.5q-47 0 -47 43z" />
<glyph horiz-adv-x="0" />
<glyph unicode="&#xd;" horiz-adv-x="681" />
<glyph horiz-adv-x="0" />
<glyph horiz-adv-x="0" />
<glyph unicode=" "  horiz-adv-x="409" />
<glyph unicode="&#x09;" horiz-adv-x="409" />
<glyph unicode="&#xa0;" horiz-adv-x="409" />
<glyph unicode="!" horiz-adv-x="405" d="M121 71.5q0 34.5 23.5 59.5t58.5 25q33 0 57.5 -25t24.5 -59.5t-24.5 -59t-57.5 -24.5q-35 0 -58.5 24.5t-23.5 59zM137 1458q0 70 64 70q29 0 48 -18.5t19 -51.5q0 -176 -12 -551t-12 -551q0 -16 -13.5 -27.5t-30 -11.5t-28.5 10.5t-12 28.5q0 176 -11.5 551t-11.5 551z " />
<glyph unicode="&#x22;" horiz-adv-x="536" d="M84 1534q0 16 17.5 27.5t38 11.5t40 -11.5t19.5 -27.5l-21 -307q0 -43 -39 -43q-35 0 -35 43zM338 1534q0 16 18.5 27.5t39 11.5t39 -11.5t18.5 -27.5l-21 -307q0 -43 -37 -43t-37 43z" />
<glyph unicode="#" horiz-adv-x="1153" d="M59 575q0 16 9.5 28.5t23.5 12.5h232l51 347h-207q-43 0 -43 41q0 16 9 28t24 12h231l62 390q4 27 36 26q25 0 38.5 -14t13.5 -35l-58 -367h269l61 390q4 27 37 26q25 0 38 -14t13 -35l-57 -367h211q14 0 28.5 -12t14.5 -28.5t-10.5 -28.5t-22.5 -12h-234l-55 -347h211 q16 0 30.5 -12t14.5 -31q0 -16 -10 -27t-25 -11h-235l-64 -429q-6 -35 -45 -34q-47 0 -47 49l64 414h-267l-65 -426q-6 -37 -41 -37q-49 0 -49 49l61 414h-205q-43 -1 -43 40zM416 616h266l53 347h-266z" />
<glyph unicode="$" horiz-adv-x="1001" d="M84 221q0 20 15.5 39t31.5 19q12 0 35.5 -27t54.5 -58.5t101.5 -59.5t162.5 -28v646q-76 25 -109.5 38t-93 44.5t-87 66.5t-51 94.5t-23.5 134.5q0 92 31.5 160t87 105t116 55t129.5 23v63q0 14 12.5 25.5t30.5 11.5q16 0 28.5 -11.5t12.5 -25.5v-61q115 -4 208 -39 t93 -76q0 -18 -14 -39t-33 -21q-10 0 -40.5 17.5t-87 36t-126.5 22.5v-545q76 -27 126 -53t103.5 -74.5t81 -123t27.5 -174.5q0 -178 -90 -276.5t-248 -117.5v-82q0 -14 -12 -25t-29 -11q-18 0 -30.5 11t-12.5 25v78q-174 0 -287.5 76t-113.5 137zM219 1141 q0 -63 20.5 -110.5t63.5 -79t82 -50t104 -41.5v516q-270 -20 -270 -235zM567 113q240 35 240 284q0 135 -62.5 206t-177.5 118v-608z" />
<glyph unicode="%" horiz-adv-x="1531" d="M88 956v316q0 115 66.5 170t177 55t177 -55.5t66.5 -169.5v-316q0 -117 -66.5 -171t-177 -54t-177 54t-66.5 171zM174 956q0 -147 158 -147q160 0 160 147v316q0 147 -160 147q-158 0 -158 -147v-316zM336 -8.5q0 14.5 4 22.5l793 1538q8 20 32 21q16 0 31.5 -13.5 t15.5 -33.5q0 -10 -6 -23l-786 -1523q-12 -27 -41 -27q-16 0 -29.5 12t-13.5 26.5zM956 219v316q0 115 67 170t177.5 55t177 -55.5t66.5 -169.5v-316q0 -117 -66.5 -171t-177 -54t-177.5 54t-67 171zM1042 219q0 -147 158 -147q160 0 160 147v316q0 147 -160 147 q-158 0 -158 -147v-316z" />
<glyph unicode="&#x26;" horiz-adv-x="1232" d="M78 412q0 147 82 249.5t200 155.5q-53 66 -82.5 108t-58.5 115.5t-29 149.5q0 158 101.5 250t253.5 92q145 0 231 -67.5t86 -118.5q0 -20 -13 -34t-34 -14q-14 0 -34.5 22.5t-42 50.5t-71 50.5t-114.5 22.5q-117 0 -184.5 -72t-67.5 -190q0 -100 47 -181t139 -180 l437 -483q72 164 75 399q0 49 48 49q43 0 43 -59q0 -262 -99 -461l193 -209q12 -16 12 -26q0 -18 -14.5 -30.5t-32.5 -12.5q-16 0 -31 14l-176 188q-143 -211 -407 -210q-211 0 -334 125t-123 307zM182 422q0 -143 99.5 -244.5t269.5 -101.5q217 0 326 182l-457 492 q-49 -27 -81 -49.5t-73 -62.5t-62.5 -94t-21.5 -122z" />
<glyph unicode="'" horiz-adv-x="282" d="M84 1534q0 16 17.5 27.5t38 11.5t40 -11.5t19.5 -27.5l-21 -307q0 -43 -39 -43q-35 0 -35 43z" />
<glyph unicode="(" horiz-adv-x="591" d="M133 301v901q0 152 106.5 261.5t262.5 109.5q49 0 49 -47q0 -20 -12.5 -34.5t-28.5 -14.5q-125 0 -198.5 -83t-73.5 -192v-901q0 -137 79.5 -191.5t192.5 -54.5q41 0 41 -47q0 -49 -49 -49q-164 0 -266.5 91t-102.5 251z" />
<glyph unicode=")" horiz-adv-x="591" d="M41 8q0 47 43 47q113 0 192.5 54.5t79.5 191.5v901q0 109 -73.5 192t-198.5 83q-16 0 -29.5 14t-13.5 35q0 18 13.5 32.5t35.5 14.5q156 0 262.5 -109.5t106.5 -261.5v-901q0 -160 -101.5 -251t-265.5 -91q-51 0 -51 49z" />
<glyph unicode="*" horiz-adv-x="864" d="M74 1223q0 18 13 34.5t32 16.5q8 0 12 -4l266 -92l-10 276q0 43 45 43t45 -43l-10 -278l266 94q12 4 15 4q18 0 30.5 -16.5t12.5 -34.5q0 -33 -29 -41l-266 -76l172 -227q6 -10 6 -23q0 -20 -15.5 -33.5t-36 -13.5t-30.5 16l-160 234l-160 -236q-12 -14 -28 -14 q-18 0 -36 12.5t-18 32.5q0 12 11 27l168 223l-269 78q-26 8 -26 41z" />
<glyph unicode="+" horiz-adv-x="876" d="M68 492q0 47 41 47h282v280q0 16 13.5 30.5t34 14.5t33.5 -13t13 -32v-280h279q18 0 31.5 -13.5t13.5 -33.5q0 -18 -13.5 -32t-31.5 -14h-279v-282q0 -43 -47 -43q-20 0 -33.5 12t-13.5 31v282h-282q-41 1 -41 46z" />
<glyph unicode="," horiz-adv-x="339" d="M86 72q0 35 23.5 59.5t58.5 24.5q33 0 58.5 -23.5t25.5 -62.5q0 -35 -72 -211q-10 -23 -35 -23q-41 0 -41 33q0 10 2 18l39 105q-59 19 -59 80z" />
<glyph unicode="-" horiz-adv-x="819" d="M100 491.5q0 20.5 12.5 34t30.5 13.5h533q16 0 29.5 -13.5t13.5 -34t-13.5 -33t-29.5 -12.5h-533q-18 0 -30.5 12.5t-12.5 33z" />
<glyph unicode="." horiz-adv-x="337" d="M86 71.5q0 34.5 23.5 59.5t60.5 25q33 0 57.5 -26t24.5 -58.5t-24.5 -58t-57.5 -25.5q-37 0 -60.5 24.5t-23.5 59z" />
<glyph unicode="/" horiz-adv-x="962" d="M43 -8q0 14 4 22l791 1538q10 20 34 21q16 0 32 -13.5t16 -33.5q0 -12 -9 -23l-784 -1523q-14 -27 -43 -27q-16 0 -28.5 11.5t-12.5 27.5z" />
<glyph unicode="0" horiz-adv-x="1079" d="M127 418v649q0 223 111.5 326.5t300.5 103.5q186 0 299.5 -103.5t113.5 -326.5v-649q0 -223 -113.5 -326.5t-299.5 -103.5q-188 0 -300 103.5t-112 326.5zM229 418q0 -332 310 -332q150 0 230.5 83t80.5 249v649q0 166 -81 249t-230 83q-309 0 -310 -332v-649zM471 741.5 q0 28.5 19.5 48t50.5 19.5q29 0 48 -19.5t19 -48t-19.5 -49t-47.5 -20.5q-31 0 -50.5 20.5t-19.5 49z" />
<glyph unicode="1" horiz-adv-x="450" d="M33 1161q0 23 24 53l152 250q18 33 49 33q45 0 45 -43v-1409q0 -45 -51 -45t-51 45v1243l-86 -147q-12 -27 -37 -27q-18 0 -31.5 14.5t-13.5 32.5z" />
<glyph unicode="2" horiz-adv-x="958" d="M76 45v199q0 80 52 156.5t130 136.5l168 127l168 129q76 61 128 143t52 170q0 117 -78 205t-219 88q-119 0 -191.5 -66.5t-72.5 -191.5q0 -16 -14.5 -29.5t-40.5 -13.5q-47 0 -47 69q0 141 105.5 235.5t264.5 94.5q174 0 285 -112.5t111 -274.5q0 -102 -52.5 -196.5 t-129.5 -160t-167 -135.5l-168 -120q-78 -53 -130 -121t-52 -133v-146h676q16 0 28.5 -14t12.5 -35q0 -18 -13.5 -33.5t-27.5 -15.5h-729q-18 0 -33.5 12.5t-15.5 32.5z" />
<glyph unicode="3" horiz-adv-x="983" d="M63 317q0 63 48 64q53 0 53 -49q0 -88 71.5 -167t235.5 -79q315 0 315 328v39q0 143 -81.5 216.5t-227.5 73.5q-45 0 -45 47.5t43 47.5q139 0 207 63.5t68 214.5q0 143 -64.5 214t-202.5 71q-156 0 -218 -74t-62 -166q0 -57 -51 -57q-29 0 -40.5 15.5t-11.5 54.5 q0 47 16.5 96t56.5 103t122 89t194 35q360 0 361 -358q0 -264 -170 -348q209 -88 209 -338v-39q0 -219 -113.5 -322.5t-298.5 -103.5q-195 0 -304.5 101t-109.5 228z" />
<glyph unicode="4" horiz-adv-x="878" d="M18 403q0 14 9 31l520 1028q18 35 51 35q18 0 33.5 -12t15.5 -31q0 -12 -6 -24l-491 -971h440v440q0 41 51 41t51 -41v-440h117q45 0 45 -49q0 -20 -12.5 -36t-32.5 -16h-117v-313q0 -45 -51 -45t-51 45v313h-527q-45 0 -45 45z" />
<glyph unicode="5" horiz-adv-x="956" d="M61 330q0 53 50 53q53 0 53 -45q0 -117 88 -184.5t221 -67.5q150 0 230.5 82t80.5 248v39q0 160 -80.5 239.5t-228.5 79.5h-280q-59 0 -60 41q0 4 1 18.5t1 18.5l39 600q4 45 39 45h559q39 0 39 -49t-39 -49h-502l-36 -531h239q186 0 299 -100t113 -313v-39 q0 -221 -114 -324.5t-300 -103.5q-188 0 -300 98.5t-112 243.5z" />
<glyph unicode="6" horiz-adv-x="1046" d="M127 418v649q0 223 113.5 326.5t302 103.5t299 -100.5t110.5 -243.5q0 -51 -47 -51q-55 0 -55 47q0 111 -89 180.5t-220 69.5q-309 0 -310 -332v-336q100 145 318 146q403 0 403 -406v-53q0 -223 -111.5 -326.5t-299.5 -103.5q-186 0 -300 103.5t-114 326.5zM231 414 q0 -330 309.5 -330t309.5 330v55q0 166 -79 239.5t-230 73.5q-309 0 -310 -295v-73z" />
<glyph unicode="7" horiz-adv-x="921" d="M61 1147v305q0 16 15.5 30.5t34.5 14.5h727q16 0 32.5 -14.5t16.5 -30.5v-160q0 -18 -13 -37l-630 -1232q-14 -25 -37 -25q-25 0 -43.5 13.5t-18.5 33.5q0 6 9 27l630 1222v105h-620v-252q0 -18 -15.5 -31.5t-36 -13.5t-36 13.5t-15.5 31.5z" />
<glyph unicode="8" horiz-adv-x="1011" d="M94 410v24q0 293 217 381q-178 78 -178 326q0 356 373 356q375 0 375 -356q0 -248 -179 -326q215 -88 216 -381v-24q0 -217 -112 -319.5t-300 -102.5q-186 0 -299 102.5t-113 319.5zM197 414q0 -166 81.5 -249t229 -83t227.5 84t80 248v26q0 326 -309 326t-309 -326v-26z M236 1135q0 -272 270 -273q272 0 272 273q0 268 -272 268q-270 0 -270 -268z" />
<glyph unicode="9" horiz-adv-x="1044" d="M94 332q0 51 47 51q53 0 54 -47q0 -111 90 -180.5t221 -69.5q309 0 309 332v336q-100 -145 -319 -146q-401 0 -402 406v53q0 223 111.5 326.5t298.5 103.5q188 0 301 -103.5t113 -326.5v-649q0 -223 -113 -326.5t-301.5 -103.5t-299 100.5t-110.5 243.5zM197 1016 q0 -166 78.5 -240t230.5 -74q309 0 309 295v74q0 166 -81 248t-230 82q-147 0 -227 -82t-80 -248v-55z" />
<glyph unicode=":" horiz-adv-x="407" d="M121 71.5q0 34.5 23.5 59.5t60.5 25q33 0 57.5 -26t24.5 -58.5t-24.5 -58t-57.5 -25.5q-37 0 -60.5 24.5t-23.5 59zM121 780q0 35 23.5 59.5t60.5 24.5q33 0 57.5 -25.5t24.5 -58t-24.5 -58.5t-57.5 -26q-37 0 -60.5 24.5t-23.5 59.5z" />
<glyph unicode=";" horiz-adv-x="413" d="M123 72q0 35 23.5 59.5t58.5 24.5q33 0 58.5 -23.5t25.5 -62.5q0 -35 -72 -211q-10 -23 -35 -23q-41 0 -41 33q0 10 2 18l39 105q-59 19 -59 80zM127 780q0 35 23.5 59.5t60.5 24.5q33 0 57.5 -25.5t24.5 -58t-24.5 -58.5t-57.5 -26q-37 0 -60.5 24.5t-23.5 59.5z" />
<glyph unicode="&#x3c;" horiz-adv-x="811" d="M55 567q0 33 27 47l557 369q8 8 20 8q18 0 35 -14t17 -35q0 -23 -21 -37l-508 -338l508 -336q20 -14 21 -36q0 -20 -16.5 -35t-35.5 -15q-12 0 -20 9l-557 368q-27 14 -27 45z" />
<glyph unicode="=" horiz-adv-x="886" d="M143 350.5q0 20.5 12.5 34.5t30.5 14h514q16 0 29.5 -14t13.5 -35q0 -18 -13 -31.5t-30 -13.5h-514q-18 0 -30.5 12.5t-12.5 33zM143 765.5q0 20.5 12.5 35t30.5 14.5h514q16 0 29.5 -14.5t13.5 -35t-13 -32.5t-30 -12h-514q-18 0 -30.5 12t-12.5 32.5z" />
<glyph unicode="&#x3e;" horiz-adv-x="811" d="M100 195q0 23 21 36l508 336l-508 338q-20 14 -21 37q0 20 15.5 34.5t34.5 14.5q12 0 22 -8l557 -369q27 -18 27 -47q0 -31 -27 -45l-557 -368q-10 -8 -22 -9q-18 0 -34 15t-16 35z" />
<glyph unicode="?" horiz-adv-x="800" d="M49 1391q0 47 91 92t208 45q184 0 281.5 -103.5t97.5 -265.5q0 -92 -35 -175t-73.5 -126t-98 -100.5t-76.5 -77.5q-41 -47 -51 -113.5t-10 -208.5q0 -41 -45 -41q-43 0 -43 48q0 166 18.5 242.5t59.5 121.5q16 18 74.5 73.5t91 92.5t63.5 107.5t31 150.5q0 135 -75 210 t-218 75q-78 0 -130 -22.5t-79 -46t-41 -23.5t-27.5 13.5t-13.5 31.5zM256 71.5q0 34.5 24.5 59.5t57.5 25t57.5 -25t24.5 -59.5t-23.5 -59t-58.5 -24.5t-58.5 24.5t-23.5 59z" />
<glyph unicode="@" horiz-adv-x="1454" d="M117 446q0 307 155.5 499t475.5 192q297 0 456.5 -169t159.5 -487q0 -176 -54.5 -290.5t-179.5 -114.5q-72 0 -127 38t-69 89q-57 -57 -110.5 -82t-137.5 -25q-258 0 -258 219q0 131 98.5 179.5t300.5 48.5h95v41q0 180 -211 180q-80 0 -133.5 -23.5t-59.5 -23.5 q-16 0 -27.5 15.5t-11.5 29.5q0 37 81 63.5t171 26.5q135 0 208 -67.5t73 -190.5v-338q4 -43 42 -73.5t83 -30.5q78 0 110.5 95t32.5 226q0 274 -135 425t-404 151q-147 0 -255.5 -49.5t-169 -135.5t-88 -189.5t-27.5 -225.5q0 -242 114.5 -402t362.5 -160q111 0 203 31 l92 33q14 0 25.5 -11.5t11.5 -23.5q0 -37 -111 -75t-231 -38q-111 0 -207 38t-175 114t-124 202.5t-45 288.5zM520 313q0 -70 47 -104.5t123 -34.5q104 0 169 52.5t65 113.5v127h-90q-76 0 -125.5 -5t-96.5 -19.5t-69.5 -46.5t-22.5 -83z" />
<glyph unicode="A" horiz-adv-x="1085" d="M47 45q0 8 2 12l438 1416q12 37 56 37h1q46 0 58 -37l434 -1416q0 -2 1 -5t1 -7q0 -18 -18.5 -31.5t-40.5 -13.5q-33 0 -41 31l-100 325h-590l-98 -325q-10 -31 -46 -31q-23 0 -40 12.5t-17 32.5zM274 451h535l-264 874z" />
<glyph unicode="B" horiz-adv-x="1089" d="M162 43v1409q0 45 49 45h319q201 0 310.5 -72.5t109.5 -271.5q0 -129 -47 -218t-127 -124q102 -43 156.5 -125t54.5 -231v-37q0 -219 -109.5 -318.5t-293.5 -99.5h-373q-23 0 -36 12.5t-13 30.5zM264 98h311q309 0 310 324v35q0 162 -79 234.5t-231 72.5h-311v-666z M264 858h277q162 0 234.5 64.5t72.5 222.5q0 147 -80 200.5t-236 53.5h-268v-541z" />
<glyph unicode="C" horiz-adv-x="1058" d="M147 418v649q0 221 116 325.5t302 104.5q188 0 298 -97t110 -235q0 -39 -12.5 -53t-38.5 -14q-51 0 -52 43q-2 43 -15 81t-43 82t-93.5 69.5t-153.5 25.5q-315 0 -315 -332v-649q0 -332 321 -332q74 0 128.5 18.5t84 42t49 65.5t25.5 66.5t12 67.5q4 43 50 43 q29 0 41 -14.5t12 -55.5q0 -135 -111.5 -233t-302.5 -98q-184 0 -298 104.5t-114 325.5z" />
<glyph unicode="D" horiz-adv-x="1134" d="M162 43v1411q0 16 14 29.5t35 13.5h362q186 0 300 -103.5t114 -326.5v-637q0 -223 -113.5 -326.5t-300.5 -103.5h-362q-20 0 -34.5 13.5t-14.5 29.5zM264 98h309q150 0 231 83t81 249v637q0 166 -81 249t-231 83h-309v-1301z" />
<glyph unicode="E" horiz-adv-x="1030" d="M162 45v1407q0 45 49 45h729q43 0 43 -47q0 -20 -12.5 -35.5t-30.5 -15.5h-676v-602h326q18 0 30.5 -14.5t12.5 -34.5q0 -45 -43 -46h-326v-604h676q18 0 30.5 -15t12.5 -36q0 -47 -43 -47h-729q-49 0 -49 45z" />
<glyph unicode="F" horiz-adv-x="1007" d="M162 43v1409q0 45 49 45h727q20 0 31.5 -14.5t11.5 -32.5q0 -20 -12.5 -35.5t-30.5 -15.5h-674v-602h326q18 0 30.5 -14.5t12.5 -34.5q0 -45 -43 -46h-326v-659q0 -43 -51 -43t-51 43z" />
<glyph unicode="G" horiz-adv-x="1097" d="M147 418v649q0 223 112 326.5t298 103.5q190 0 303 -97t113 -249q0 -53 -51 -53q-49 0 -52 43q-35 258 -311 258q-309 0 -309 -332v-649q0 -332 309 -332q150 0 230.5 83t80.5 249v274h-303q-18 0 -29.5 14.5t-11.5 33t11.5 32.5t29.5 14h363q18 0 30.5 -14t12.5 -33 v-321q0 -223 -114 -326.5t-300 -103.5q-188 0 -300 103.5t-112 326.5z" />
<glyph unicode="H" horiz-adv-x="1153" d="M162 45v1409q0 43 51 43t51 -43v-631h625v631q0 43 51 43t51 -43v-1409q0 -45 -51 -45t-51 45v684h-625v-684q0 -45 -51 -45t-51 45z" />
<glyph unicode="I" horiz-adv-x="425" d="M162 45v1409q0 43 51 43t51 -43v-1409q0 -45 -51 -45t-51 45z" />
<glyph unicode="J" horiz-adv-x="1030" d="M49 336q0 53 51.5 53t51.5 -43q2 -125 88 -192.5t223 -67.5q309 0 309 332v981h-307q-43 0 -43 51q0 47 43 47h360q49 0 49 -45v-1034q0 -223 -111.5 -326.5t-297.5 -103.5q-188 0 -302 98t-114 250z" />
<glyph unicode="K" horiz-adv-x="1052" d="M162 45v1409q0 43 51 43t51 -43v-766l629 793q10 16 35 16q20 0 37.5 -16.5t17.5 -36.5q0 -16 -10 -25l-457 -569l516 -778q8 -8 8 -23q0 -20 -17 -35.5t-40 -15.5q-25 0 -39 25l-495 741l-185 -229v-490q0 -45 -51 -45t-51 45z" />
<glyph unicode="L" horiz-adv-x="935" d="M162 45v1409q0 43 51 43t51 -43v-1356h604q39 0 39 -49t-39 -49h-657q-49 0 -49 45z" />
<glyph unicode="M" horiz-adv-x="1349" d="M162 45v1403q0 49 51 49q41 0 86 -84l375 -733l377 733q45 84 86 84q51 0 51 -49v-1403q0 -45 -51.5 -45t-51.5 45v1219l-364 -697q-25 -43 -47 -43q-27 0 -47 43l-363 699v-1221q0 -45 -51 -45t-51 45z" />
<glyph unicode="N" horiz-adv-x="1153" d="M162 45v1409q0 43 51 43q39 0 84 -84l592 -1169v1210q0 43 51 43t51 -43v-1409q0 -45 -51 -45q-33 0 -74 76l-602 1179v-1210q0 -45 -51 -45t-51 45z" />
<glyph unicode="O" horiz-adv-x="1120" d="M147 418v649q0 223 112 326.5t300 103.5q186 0 300 -103.5t114 -326.5v-649q0 -223 -114 -326.5t-300 -103.5q-188 0 -300 103.5t-112 326.5zM250 418q0 -332 309 -332q150 0 230.5 83t80.5 249v649q0 166 -80.5 249t-230.5 83q-309 0 -309 -332v-649z" />
<glyph unicode="P" horiz-adv-x="1062" d="M162 45v1409q0 39 47 43h369q186 0 298.5 -103.5t112.5 -324.5v-22q0 -221 -113.5 -326t-300.5 -105h-311v-571q0 -45 -51 -45t-51 45zM264 711h311q150 0 231 83t81 250v23q0 166 -81 249t-231 83h-311v-688z" />
<glyph unicode="Q" horiz-adv-x="1120" d="M147 418v649q0 223 112 326.5t300 103.5q186 0 300 -103.5t114 -326.5v-649q0 -211 -99.5 -314.5t-269.5 -113.5v-168q0 -23 -13 -34t-30 -11q-45 0 -45 45v168q-170 10 -269.5 113.5t-99.5 314.5zM250 418q0 -307 266 -330v162q0 43 45 43q43 0 43 -43v-160 q266 23 266 328v649q0 166 -80.5 249t-230.5 83q-309 0 -309 -332v-649z" />
<glyph unicode="R" horiz-adv-x="1056" d="M162 45v1409q0 18 12 30.5t33 12.5h350q193 0 312.5 -93t119.5 -304q0 -344 -334 -391l328 -635q6 -12 6 -25q0 -20 -15.5 -35.5t-40 -15.5t-63.5 72l-321 628h-285v-653q0 -45 -51 -45t-51 45zM264 793h293q330 0 330 305q0 301 -330 301h-293v-606z" />
<glyph unicode="S" horiz-adv-x="997" d="M80 201q0 20 15.5 38.5t31.5 18.5q12 0 37 -27l55 -59q31 -33 99.5 -59.5t158.5 -26.5q158 0 242 78t84 229q0 115 -51.5 190.5t-127 108.5t-164.5 68t-165 68.5t-127 111.5t-51 197q0 106 39 181t104.5 112.5t132 53t142.5 15.5q123 0 228 -36t105 -81q0 -18 -14 -38.5 t-33 -20.5q-10 0 -45 19.5t-99.5 39t-144.5 19.5q-133 0 -223 -58.5t-90 -197.5q0 -84 38 -140.5t98.5 -87t133 -55t146.5 -55.5t134 -76t98 -128t38 -200q0 -209 -113.5 -312t-304.5 -103q-176 0 -291.5 76t-115.5 137z" />
<glyph unicode="T" horiz-adv-x="958" d="M31 1447.5q0 20.5 12 35t31 14.5h811q43 0 43 -47q0 -51 -43 -51h-353v-1354q0 -45 -51 -45t-51 45v1354h-356q-18 0 -30.5 14t-12.5 34.5z" />
<glyph unicode="U" horiz-adv-x="1140" d="M156 418v1036q0 43 51 43t51 -43v-1036q0 -166 81 -249t230.5 -83t231.5 83t82 249v1036q0 43 51 43t51 -43v-1036q0 -223 -113.5 -326.5t-302 -103.5t-301 103.5t-112.5 326.5z" />
<glyph unicode="V" horiz-adv-x="1081" d="M45 1452q0 20 17.5 32.5t39.5 12.5q35 0 45 -31l396 -1294l393 1294q8 31 41 31q23 0 41 -13.5t18 -31.5q0 -4 -1 -7t-1 -5l-434 -1415q-10 -37 -57 -37q-45 0 -58 37l-438 1415q-2 4 -2 12z" />
<glyph unicode="W" horiz-adv-x="1560" d="M49 1454q0 18 17.5 30.5t37.5 12.5q39 0 48 -31l362 -1294l209 776q10 41 55 41t58 -41l215 -776l358 1294q8 31 47 31q20 0 37.5 -12t17.5 -31q0 -8 -2 -14l-401 -1415q-12 -37 -59 -37q-49 0 -56 37l-211 766l-211 -766q-10 -37 -57 -37t-57 37l-406 1415q-2 6 -2 14z " />
<glyph unicode="X" horiz-adv-x="952" d="M53 49q0 6 8 27l353 674l-346 667q-12 20 -13 39q0 43 58 43q31 0 65 -72l297 -579l299 579q0 2 8 19l13 20q4 4 12 14.5t16 14.5t17 4q57 0 57 -43q0 -18 -12 -39l-348 -667l354 -674q8 -20 8 -27q0 -20 -17.5 -35.5t-39.5 -15.5q-6 0 -13 2q-6 4 -10 8l-10 8 q-4 4 -9 12.5t-6 12.5t-7.5 14.5t-6.5 12.5l-305 585l-303 -585q0 -2 -6 -12.5t-7 -14.5t-6.5 -12.5t-9.5 -12.5l-8 -8q-4 -4 -11 -7t-13 -3q-20 0 -39 15.5t-19 35.5z" />
<glyph unicode="Y" horiz-adv-x="1064" d="M43 1452q0 20 14.5 32.5t34.5 12.5q27 0 47 -37l393 -788l396 788q18 37 47 37q18 0 31.5 -12t13.5 -33q0 -23 -8 -39l-426 -833q-2 -4 -2 -15v-520q0 -45 -51.5 -45t-51.5 45v520q0 6 -4 15l-424 833q-10 27 -10 39z" />
<glyph unicode="Z" horiz-adv-x="970" d="M53 41q0 20 10 35l701 1323h-645q-43 0 -43 49t43 49h735q43 0 43 -37q0 -23 -12 -43l-699 -1319h691q43 0 43 -49t-43 -49h-781q-43 0 -43 41z" />
<glyph unicode="[" horiz-adv-x="600" d="M145 0v1530q0 18 14.5 30.5t35.5 12.5h323q18 0 29.5 -14.5t11.5 -32.5q0 -20 -12 -34.5t-29 -14.5h-270v-1424h270q16 0 28.5 -14t12.5 -35q0 -18 -11 -32.5t-30 -14.5h-323q-20 0 -35 12.5t-15 30.5z" />
<glyph unicode="\" horiz-adv-x="704" d="M53 1497q0 20 14.5 33.5t32.5 13.5q27 0 37 -22l512 -1469q2 -4 2 -14q0 -16 -13 -27.5t-30 -11.5q-33 0 -41 29l-510 1452q-4 12 -4 16z" />
<glyph unicode="]" horiz-adv-x="602" d="M41 4q0 20 12.5 34.5t30.5 14.5h270v1424h-270q-18 0 -30.5 14t-12.5 35q0 18 12.5 32.5t30.5 14.5h324q20 0 34.5 -12.5t14.5 -30.5v-1530q0 -18 -14.5 -30.5t-34.5 -12.5h-324q-18 0 -30.5 14.5t-12.5 32.5z" />
<glyph unicode="^" horiz-adv-x="540" d="M0 1268q0 23 23 35l213 114q16 10 34.5 10t34.5 -10l213 -112q23 -12 23 -41q0 -16 -11.5 -28.5t-27.5 -12.5l-19 6l-213 112l-213 -114q-2 0 -8 -3t-8 -3q-16 0 -28.5 13.5t-12.5 33.5z" />
<glyph unicode="_" horiz-adv-x="700" d="M-20 -47.5q0 20.5 12 34t31 13.5h655q16 0 29.5 -13.5t13.5 -33.5q0 -18 -12.5 -31.5t-30.5 -13.5h-655q-18 0 -30.5 12t-12.5 32.5z" />
<glyph unicode="`" horiz-adv-x="292" d="M0 1380q0 18 11.5 32.5t29.5 14.5q6 0 14 -4l219 -125q18 -8 19 -30q0 -18 -13.5 -32.5t-31.5 -14.5q-8 0 -21 6l-204 112q-23 14 -23 41z" />
<glyph unicode="a" horiz-adv-x="882" d="M68 258q0 154 121.5 214t355.5 60h110v54q0 123 -64.5 212t-193.5 89q-78 0 -145.5 -29t-69.5 -29q-20 0 -32.5 18.5t-12.5 37.5q0 35 85 64.5t179 29.5q182 0 268.5 -111.5t86.5 -281.5v-541q0 -18 -14.5 -31.5t-35 -13.5t-35 13.5t-14.5 31.5v98q-134 -155 -305 -155 h-2q-125 0 -203.5 68.5t-78.5 201.5zM168 262q0 -92 54 -138t143 -46q104 0 197 74.5t93 146.5v152h-100q-88 0 -147.5 -6.5t-119 -24t-90 -57.5t-30.5 -101z" />
<glyph unicode="b" horiz-adv-x="972" d="M135 45v1481q0 18 14.5 30.5t34.5 12.5q23 0 37.5 -12.5t14.5 -30.5v-703q37 68 107.5 112t164.5 44q152 0 260.5 -109.5t108.5 -265.5v-237q0 -150 -110 -264.5t-255 -114.5q-90 0 -167 45t-112 110v-98q0 -16 -14 -30.5t-34.5 -14.5t-35 13.5t-14.5 31.5zM236 297 q0 -59 81.5 -137t186.5 -78q109 0 190.5 87t81.5 198v237q0 109 -82 195t-192 86q-104 0 -185 -78t-81 -203v-307z" />
<glyph unicode="c" horiz-adv-x="831" d="M100 367v233q0 168 97.5 273.5t287.5 105.5q117 0 197 -42t80 -83q0 -18 -14.5 -33.5t-32.5 -15.5q-10 0 -36 19.5t-75 40t-117 20.5q-137 0 -211.5 -76t-74.5 -209v-233q0 -135 73.5 -210t214.5 -75q72 0 123.5 20.5t78 41t38.5 20.5q18 0 31.5 -15.5t13.5 -33.5 q0 -43 -83 -85t-206 -42q-188 0 -286.5 104.5t-98.5 274.5z" />
<glyph unicode="d" horiz-adv-x="974" d="M98 367v237q0 156 108.5 265.5t260.5 109.5q94 0 164.5 -44t107.5 -112v703q0 18 14.5 30.5t37.5 12.5q20 0 34.5 -12.5t14.5 -30.5v-1481q0 -18 -14.5 -31.5t-35 -13.5t-35 14.5t-14.5 30.5v98q-35 -66 -111.5 -110.5t-166.5 -44.5q-145 0 -255 114.5t-110 264.5z M199 367q0 -111 81.5 -198t190.5 -87q104 0 186 78t82 137v307q0 125 -80.5 203t-185.5 78q-111 0 -192.5 -86t-81.5 -195v-237z" />
<glyph unicode="e" horiz-adv-x="923" d="M98 367v243q0 152 110.5 260.5t266.5 108.5q152 0 262.5 -106.5t110.5 -264.5q0 -55 -13.5 -89t-42 -48t-52 -17t-66.5 -3h-475v-86q0 -129 92 -207t237 -78q74 0 125.5 20.5t78 41t40.5 20.5q18 0 32.5 -16.5t14.5 -32.5q0 -39 -85 -82t-210 -43q-188 0 -307 104.5 t-119 274.5zM199 535h436q70 0 92.5 14t22.5 59q0 109 -78 195t-197 86q-115 0 -195.5 -80t-80.5 -191v-83z" />
<glyph unicode="f" horiz-adv-x="606" d="M135 43v1155q0 150 108.5 260.5t256.5 110.5h35q20 0 33.5 -14.5t13.5 -35t-13.5 -32.5t-33.5 -12h-27q-115 0 -192.5 -81t-79.5 -192v-235h303q18 0 30.5 -13.5t12.5 -29.5q0 -18 -12.5 -31.5t-30.5 -13.5h-303v-836q0 -18 -15.5 -30.5t-38.5 -12.5q-47 0 -47 43z" />
<glyph unicode="g" horiz-adv-x="917" d="M57 -213q0 160 181 225q-119 39 -119 144q0 94 100 145q-109 96 -108 258v84q0 147 94 241.5t246 94.5q150 0 241 -92q29 57 71 92t79 35q27 0 40 -14.5t13 -32.5q0 -37 -37 -41q-72 -4 -119 -92q53 -72 54 -191v-84q0 -147 -96.5 -243.5t-247.5 -96.5q-92 0 -162 39 q-74 -37 -74 -90t66.5 -76.5t161 -31t188.5 -24t160.5 -73.5t66.5 -160q0 -135 -106.5 -209.5t-286.5 -74.5t-293 73.5t-113 194.5zM156 -203q0 -88 81.5 -142t225.5 -54q139 0 216 53t77 145q0 45 -21.5 77t-52.5 50.5t-79 30.5t-84 15t-89 8l-74 8q-200 -60 -200 -191z M209 561q0 -113 65.5 -185.5t178.5 -72.5q111 0 176 71.5t65 184.5v84q0 111 -65.5 181.5t-178 70.5t-177 -70.5t-64.5 -181.5v-82z" />
<glyph unicode="h" d="M135 45v1481q0 18 14.5 30.5t34.5 12.5q23 0 37.5 -12.5t14.5 -30.5v-703q35 66 105.5 111t166.5 45q150 0 258 -110.5t108 -264.5v-559q0 -45 -51 -45q-49 0 -49 45v559q0 109 -82 195t-192 86q-104 0 -184 -77t-80 -204v-559q0 -16 -15.5 -30.5t-36 -14.5t-35 13.5 t-14.5 31.5z" />
<glyph unicode="i" horiz-adv-x="370" d="M106 1348q0 29 23 50t55 21q31 0 53.5 -21.5t22.5 -49.5q0 -31 -22.5 -53.5t-53.5 -22.5q-33 0 -55.5 22.5t-22.5 53.5zM135 45v881q0 41 49 41q51 0 52 -41v-881q0 -16 -15.5 -30.5t-36 -14.5t-35 13.5t-14.5 31.5z" />
<glyph unicode="j" horiz-adv-x="370" d="M-76 -432.5q0 20.5 13.5 33t33.5 12.5q98 0 131 73.5t33 219.5v1020q0 41 49 41q51 0 52 -41v-1020q0 -387 -261 -387q-23 0 -37 14t-14 34.5zM106 1348q0 29 23 50t55 21q31 0 53.5 -21.5t22.5 -49.5q0 -31 -22.5 -53.5t-53.5 -22.5q-33 0 -55.5 22.5t-22.5 53.5z" />
<glyph unicode="k" horiz-adv-x="911" d="M135 45v1481q0 18 14.5 30.5t34.5 12.5q23 0 37.5 -12.5t14.5 -30.5v-1030l528 462q10 10 24 11q20 0 37 -12.5t17 -34.5q0 -20 -15 -33l-317 -277l369 -540q6 -10 6 -23q0 -18 -15.5 -34.5t-36 -16.5t-34.5 20l-361 529l-202 -176v-326q0 -16 -15.5 -30.5t-36 -14.5 t-35 13.5t-14.5 31.5z" />
<glyph unicode="l" horiz-adv-x="403" d="M152 45v1481q0 18 14 30.5t35 12.5q23 0 37 -12.5t14 -30.5v-1481q0 -16 -15.5 -30.5t-36 -14.5t-34.5 13.5t-14 31.5z" />
<glyph unicode="m" horiz-adv-x="1585" d="M135 45v881q0 41 49 41q20 0 34.5 -11.5t14.5 -29.5v-103q88 156 275 156q100 0 179 -55.5t120 -149.5q51 100 135 152.5t176 52.5q139 0 239.5 -101.5t100.5 -273.5v-559q0 -16 -15.5 -30.5t-36 -14.5t-34.5 14.5t-14 30.5v559q0 131 -77 206t-175 75q-102 0 -181 -76 t-79 -195v-571q0 -43 -51 -43q-49 0 -50 43v569q0 115 -72.5 194t-176.5 79q-102 0 -181 -77t-79 -204v-559q0 -16 -15.5 -30.5t-36 -14.5t-35 13.5t-14.5 31.5z" />
<glyph unicode="n" d="M135 45v881q0 41 49 41q20 0 34.5 -11.5t14.5 -29.5v-103q35 66 107 111t168 45q150 0 258 -110.5t108 -264.5v-559q0 -45 -51 -45q-49 0 -49 45v559q0 109 -82 195t-192 86q-104 0 -184 -77t-80 -204v-559q0 -16 -15.5 -30.5t-36 -14.5t-35 13.5t-14.5 31.5z" />
<glyph unicode="o" horiz-adv-x="944" d="M96 367v237q0 152 110.5 263.5t264.5 111.5q152 0 264.5 -110.5t112.5 -264.5v-237q0 -150 -113.5 -264.5t-263 -114.5t-262.5 113.5t-113 265.5zM197 367q0 -111 80.5 -198t193.5 -87t195 87t82 198v237q0 109 -82 195t-195 86t-193.5 -86t-80.5 -195v-237z" />
<glyph unicode="p" horiz-adv-x="972" d="M135 -436v1362q0 41 49 41q20 0 34.5 -11.5t14.5 -29.5v-103q88 156 275 156q152 0 260.5 -109.5t108.5 -265.5v-237q0 -150 -110 -264.5t-255 -114.5q-90 0 -166 45t-110 110v-579q0 -16 -15.5 -30.5t-36 -14.5t-35 13.5t-14.5 31.5zM236 297q0 -59 81.5 -137t186.5 -78 q109 0 190.5 87t81.5 198v237q0 109 -83 195t-193 86q-104 0 -184 -77t-80 -204v-307z" />
<glyph unicode="q" horiz-adv-x="974" d="M98 367v237q0 156 108.5 265.5t260.5 109.5q94 0 166 -45t108 -111v103q0 18 14.5 29.5t35.5 11.5q49 0 49 -41v-1362q0 -18 -14.5 -31.5t-35 -13.5t-36 14t-15.5 31v579q-35 -66 -111.5 -110.5t-164.5 -44.5q-145 0 -255 114.5t-110 264.5zM199 367q0 -111 81.5 -198 t190.5 -87q104 0 186 78t82 137v307q0 127 -79.5 204t-186.5 77q-111 0 -192.5 -86t-81.5 -195v-237z" />
<glyph unicode="r" horiz-adv-x="653" d="M135 45v881q0 41 49 41q20 0 34.5 -11.5t14.5 -29.5v-105q37 68 110 113t169 45h74q18 0 31.5 -13.5t13.5 -34t-13.5 -33.5t-31.5 -13h-74q-111 0 -193.5 -83t-82.5 -216v-541q0 -16 -15.5 -30.5t-36 -14.5t-35 13.5t-14.5 31.5z" />
<glyph unicode="s" horiz-adv-x="776" d="M74 127q0 16 11 31.5t26 15.5q12 2 32 -14l47 -33q25 -16 76 -32.5t115 -16.5q115 0 170 44t55 114q0 82 -52 129t-127 68.5t-150.5 46t-128 79.5t-52.5 150q0 106 79 188t233 82q96 0 179 -29.5t83 -62.5q0 -16 -14.5 -34.5t-30.5 -18.5q-2 0 -72 27.5t-143 27.5 q-111 0 -165.5 -55.5t-54.5 -122.5q0 -70 52.5 -109t128 -59.5t151.5 -46t128 -88t52 -166.5q0 -119 -83.5 -186.5t-235.5 -67.5q-131 0 -220 46t-89 93z" />
<glyph unicode="t" horiz-adv-x="581" d="M131 293v1100q0 18 15.5 30.5t33.5 12.5q20 0 35.5 -12.5t15.5 -30.5v-426h273q16 0 27.5 -13.5t11.5 -31.5q0 -16 -12.5 -29.5t-26.5 -13.5h-273v-586q0 -109 47.5 -154t163.5 -45h52q20 0 33.5 -13t13.5 -34q0 -18 -13.5 -32.5t-33.5 -14.5h-52q-311 0 -311 293z" />
<glyph unicode="u" d="M125 362v562q0 16 15.5 29.5t35.5 13.5q18 0 33.5 -13.5t15.5 -29.5v-562q0 -111 81 -195.5t193.5 -84.5t193.5 85t81 195v564q0 16 15.5 28.5t36 12.5t34.5 -12.5t14 -28.5v-564q0 -152 -110.5 -263t-264 -111t-264 112t-110.5 262z" />
<glyph unicode="v" horiz-adv-x="833" d="M37 922q0 20 17.5 33.5t39.5 13.5q33 0 41 -25l281 -774l280 762q14 37 41 37q20 0 40 -13.5t20 -31.5l-9 -33l-323 -877q-14 -29 -49 -28.5t-47 28.5l-324 877q-8 25 -8 31z" />
<glyph unicode="w" horiz-adv-x="1353" d="M37 922q0 20 17.5 33.5t39.5 13.5q29 0 41 -25l277 -768l223 705q8 31 45 30q35 0 43 -30l217 -715l283 778q6 25 39 25q23 0 39 -12.5t16 -32.5q0 -18 -8 -31l-320 -879q-12 -29 -40.5 -28.5t-41.5 26.5l-227 721l-225 -710q-12 -37 -45 -37t-45 37l-320 870 q-8 25 -8 29z" />
<glyph unicode="x" horiz-adv-x="806" d="M51 37q0 10 8 22l279 430l-277 418q-6 10 -6 21q0 20 17.5 35.5t40.5 15.5q25 0 34 -16l256 -394l259 392q12 18 32.5 18t39 -15.5t18.5 -35.5q0 -10 -7 -21l-278 -420l281 -428q8 -12 8 -22q0 -18 -18.5 -33.5t-39.5 -15.5q-23 0 -34 16l-261 402l-258 -402 q-16 -16 -36.5 -16t-39 15.5t-18.5 33.5z" />
<glyph unicode="y" horiz-adv-x="835" d="M35 932q0 20 18.5 34.5t40.5 14.5q33 0 39 -27l289 -788l280 788q14 27 39 27q20 0 39 -14.5t19 -34.5q0 -10 -2 -17l-324 -882l-43 -115q-12 -33 -45 -109.5t-59.5 -114.5t-65.5 -86t-83 -68.5t-93 -20.5q-47 0 -47 47t37 47q170 0 297 420l-332 882q-4 13 -4 17z" />
<glyph unicode="z" horiz-adv-x="804" d="M51 41q0 20 15 39l524 794h-475q-18 0 -30.5 13.5t-12.5 32.5q0 20 12 33.5t31 13.5h573q18 0 30.5 -12.5t12.5 -31t-12 -34.5l-526 -795h518q18 0 30.5 -14t12.5 -35q0 -18 -12.5 -31.5t-30.5 -13.5h-615q-18 0 -31.5 12.5t-13.5 28.5z" />
<glyph unicode="{" horiz-adv-x="608" d="M66 786.5q0 24.5 19 36t42 12.5t42 9t19 30q0 16 -20.5 174t-20.5 191q0 135 110 234.5t259 99.5q25 0 38 -14.5t13 -33t-12 -32.5t-29 -14q-115 0 -195.5 -75t-80.5 -175q0 -33 20.5 -186.5t20.5 -172.5q0 -31 -23.5 -54t-46.5 -30q25 -8 47.5 -29.5t22.5 -51.5 q0 -20 -20.5 -208t-20.5 -229q0 -111 91 -163t185 -52q41 0 41 -45q0 -49 -51 -49q-156 0 -262.5 87t-106.5 222q0 37 20.5 226.5t20.5 205.5q0 23 -19 31t-42 8t-42 11.5t-19 36z" />
<glyph unicode="|" horiz-adv-x="393" d="M145 0v1530q0 43 52 43q20 0 35.5 -12.5t15.5 -30.5v-1530q0 -16 -15.5 -29.5t-35.5 -13.5q-23 0 -37.5 12.5t-14.5 30.5z" />
<glyph unicode="}" horiz-adv-x="608" d="M41 8q0 45 43 45q94 0 185 52.5t91 162.5q0 41 -21.5 228.5t-21.5 208.5q0 31 22.5 52t47.5 29q-25 6 -47.5 29t-22.5 55q0 18 21.5 172t21.5 187q0 100 -80.5 175t-195.5 75q-18 0 -30.5 14t-12.5 32.5t14.5 33t38.5 14.5q150 0 259.5 -99.5t109.5 -234.5 q0 -33 -21.5 -190.5t-21.5 -174.5q0 -23 19.5 -30.5t42 -8.5t42 -12.5t19.5 -36t-19.5 -36t-42 -11.5t-42 -8t-19.5 -31q0 -16 21.5 -205.5t21.5 -226.5q0 -135 -106.5 -222t-262.5 -87q-23 0 -38 13t-15 36z" />
<glyph unicode="~" horiz-adv-x="821" d="M100 498q0 45 62.5 77.5t120.5 32.5q51 0 131 -36.5t133 -36.5t90 31.5t47 31.5q14 0 24.5 -12.5t10.5 -26.5q0 -49 -58.5 -79.5t-113.5 -30.5q-51 0 -131 36.5t-137 36.5q-51 0 -94.5 -33.5t-51.5 -33.5q-33 0 -33 43z" />
<glyph unicode="&#xa1;" horiz-adv-x="405" d="M121 1444q0 35 23.5 59.5t58.5 24.5q33 0 57.5 -24.5t24.5 -59.5t-24.5 -59.5t-57.5 -24.5q-35 0 -58.5 24.5t-23.5 59.5zM137 59q0 176 11.5 549t11.5 551q0 16 13 27.5t29.5 11.5t30 -11t13.5 -28q0 -178 11 -550.5t11 -549.5q0 -35 -18.5 -53t-47 -18t-47 18t-18.5 53 z" />
<glyph unicode="&#xa2;" horiz-adv-x="835" d="M78 731v39q0 150 75.5 251t227.5 124v235q0 16 12.5 28.5t30.5 12.5q16 0 29.5 -12t13.5 -29v-231q115 -2 199 -39t84 -84q0 -20 -14.5 -34.5t-35.5 -14.5q-10 0 -35.5 19.5t-75.5 40t-122 20.5v-611q72 0 122 20.5t74.5 40t36.5 19.5q20 0 36 -14t16 -35 q0 -49 -88.5 -86t-196.5 -39v-229q0 -16 -13.5 -28.5t-29.5 -12.5q-18 0 -30.5 12t-12.5 29v233q-150 23 -226.5 123t-76.5 252zM172 731q0 -240 209 -278v596q-209 -43 -209 -279v-39z" />
<glyph unicode="&#xa3;" horiz-adv-x="968" d="M51 49.5q0 20.5 12.5 34.5t32.5 14h125l90 654h-166q-39 0 -39 43q0 47 39 47h181l51 356q23 154 148.5 264.5t281.5 110.5h33q23 0 35 -14.5t12 -34.5q0 -18 -12.5 -32.5t-34.5 -14.5h-43q-119 0 -211 -83t-109 -196l-51 -356h319q39 0 39 -47q0 -43 -39 -43h-333 l-93 -654h529q18 0 28.5 -14t10.5 -34.5t-10.5 -35t-28.5 -14.5h-752q-20 0 -32.5 14.5t-12.5 35z" />
<glyph unicode="&#xa4;" horiz-adv-x="989" d="M133 651.5q0 14.5 10 24.5l68 67q-76 102 -76 223t74 222l-53 55q-10 10 -11 27q0 14 12.5 25.5t28.5 11.5q14 0 25 -11l51 -51q104 90 236 90q123 0 225 -82l55 56q10 10 29 10q14 0 25.5 -11.5t11.5 -25.5q0 -16 -10 -27l-58 -57q86 -98 86 -231q0 -131 -88 -232 l60 -59q10 -14 10 -25q0 -14 -11.5 -25.5t-25.5 -11.5q-16 0 -27 11l-57 55q-102 -86 -225 -86q-127 0 -236 94l-65 -63q-10 -10 -24.5 -10.5t-27 11t-12.5 26zM223 966.5q0 -110.5 81 -197.5t193.5 -87t194.5 87t82 198q0 109 -82 194.5t-194.5 85.5t-193.5 -85t-81 -195.5 z" />
<glyph unicode="&#xa5;" horiz-adv-x="1003" d="M51 1452q0 16 16.5 31.5t36.5 15.5q27 0 41 -26l349 -687l366 687q16 27 41 26q18 0 34.5 -14.5t16.5 -32.5q0 -8 -4 -16l-381 -713h234q16 0 29.5 -13.5t13.5 -32t-13.5 -30.5t-29.5 -12h-258v-156h258q16 0 29.5 -13t13.5 -31.5t-13.5 -31t-29.5 -12.5h-258v-348 q0 -18 -14.5 -30.5t-35 -12.5t-36 12.5t-15.5 30.5v348h-243q-41 0 -41 43q0 18 11 31.5t30 13.5h243v156h-243q-41 0 -41 43q0 45 41 45h219l-363 713q-4 8 -4 16z" />
<glyph unicode="&#xa6;" horiz-adv-x="395" d="M147 0v567q0 16 14.5 28.5t35 12.5t36 -12t15.5 -29v-567q0 -16 -15.5 -29.5t-36 -13.5t-35 13.5t-14.5 29.5zM147 963v567q0 18 14.5 30.5t35 12.5t36 -12.5t15.5 -30.5v-567q0 -16 -15.5 -28.5t-36 -12.5t-35 12.5t-14.5 28.5z" />
<glyph unicode="&#xa7;" horiz-adv-x="948" d="M102 203q0 51 52 51q45 0 45 -43q0 -53 18.5 -105.5t80.5 -99.5t161 -47q133 0 203.5 70.5t70.5 201.5q0 98 -61.5 155.5t-149.5 85.5t-176 60.5t-149.5 110.5t-61.5 207v262q0 111 33 190.5t86 119.5t108.5 57.5t116.5 17.5q154 0 237 -90t83 -236q0 -55 -47 -55 q-51 0 -52 58q0 35 -9 70.5t-31.5 73.5t-67.5 61.5t-109 23.5q-102 0 -176 -67.5t-74 -213.5q0 -98 62.5 -156.5t151 -86t176.5 -60.5t150.5 -110.5t62.5 -206.5v-258q0 -193 -101.5 -286t-261.5 -93q-166 0 -268.5 97.5t-102.5 240.5zM231 846q0 -106 60.5 -170 t138.5 -85.5t171 -60t140 -92.5v66q0 86 -37.5 142t-100 85t-128 49.5t-135.5 52t-109 76.5v-63z" />
<glyph unicode="&#xa8;" horiz-adv-x="372" d="M0 1290.5q0 28.5 19.5 47t48 18.5t47 -18.5t18.5 -47t-18.5 -48t-47 -19.5t-48 19.5t-19.5 48zM240 1290.5q0 28.5 18 47t49 18.5q29 0 47.5 -18.5t18.5 -47t-18.5 -48t-47.5 -19.5q-31 0 -49 19.5t-18 48z" />
<glyph unicode="&#xa9;" horiz-adv-x="1482" d="M113 733q0 164 58 296t152.5 211t204 121t220 42t219 -42t199.5 -121t147.5 -209t56.5 -290q0 -164 -58.5 -296t-152.5 -210.5t-203.5 -120.5t-220 -42t-219 42t-200 120.5t-147.5 208.5t-56 290zM193 733q0 -256 150.5 -418.5t392 -162.5t398 163.5t156.5 425.5 q0 256 -150.5 419t-392 163t-398 -164t-156.5 -426zM537 584v334q0 123 57 182t149 59q94 0 151.5 -55t57.5 -137q0 -29 -9 -39t-34 -10q-39 0 -43 32q-6 129 -121 129q-125 0 -124 -161v-334q0 -162 127 -162q37 0 61.5 12t35.5 36t15 42t6 45q2 31 43 31q25 0 34 -10.5 t9 -38.5q0 -84 -57 -139.5t-154 -55.5q-92 0 -148 58.5t-56 181.5z" />
<glyph unicode="&#xaa;" horiz-adv-x="636" d="M76 1051q0 100 77.5 139t223.5 39h63v28q0 70 -36.5 121.5t-110.5 51.5q-53 0 -95 -19.5t-44 -19.5q-16 0 -25.5 15t-9.5 32q0 25 56 46t120 21q121 0 178 -70.5t57 -177.5v-331q0 -14 -12 -24.5t-33 -10.5q-16 0 -28.5 10t-12.5 25v53q-86 -96 -202 -96q-72 0 -119 44 t-47 124zM166 1059q0 -51 29.5 -78t78.5 -27q59 0 112.5 45t53.5 91v77h-59q-100 0 -157.5 -22.5t-57.5 -85.5z" />
<glyph unicode="&#xab;" horiz-adv-x="780" d="M76 567.5q0 18.5 16 44.5l189 353q14 20 41 20q20 0 36.5 -15.5t16.5 -33.5q0 -10 -6 -21l-189 -348l189 -346q6 -8 6 -20q0 -18 -17.5 -33.5t-40.5 -15.5q-25 0 -36 20l-189 350q-16 27 -16 45.5zM399 567.5q0 18.5 17 44.5l188 353q14 20 41 20q20 0 36.5 -15.5 t16.5 -33.5q0 -10 -6 -21l-188 -348l188 -346q6 -8 6 -20q0 -18 -17 -33.5t-40 -15.5t-37 20l-188 350q-17 27 -17 45.5z" />
<glyph unicode="&#xac;" horiz-adv-x="989" d="M119 491.5q0 20.5 12 34t31 13.5h643q16 0 29.5 -14.5t13.5 -32.5v-320q0 -18 -14.5 -30.5t-34.5 -12.5q-23 0 -37 12.5t-14 30.5v274h-586q-18 0 -30.5 12.5t-12.5 33z" />
<glyph unicode="&#xad;" horiz-adv-x="942" d="M100 491.5q0 20.5 12.5 34t30.5 13.5h656q16 0 29.5 -13.5t13.5 -34t-13.5 -33t-29.5 -12.5h-656q-18 0 -30.5 12.5t-12.5 33z" />
<glyph unicode="&#xae;" horiz-adv-x="1482" d="M113 733q0 164 58 296t152.5 211t204 121t220 42t219 -42t199.5 -121t147.5 -209t56.5 -290q0 -164 -58.5 -296t-152.5 -210.5t-203.5 -120.5t-220 -42t-219 42t-200 120.5t-147.5 208.5t-56 290zM193 733q0 -256 150.5 -418.5t392 -162.5t398 163.5t156.5 425.5 q0 256 -150.5 419t-392 163t-398 -164t-156.5 -426zM553 381v739q0 27 31 31h176q211 0 211 -219q0 -180 -142 -213l140 -313q4 -12 4 -15q0 -16 -15.5 -29.5t-34 -13.5t-34.5 37l-148 324h-104v-328q0 -31 -41 -31q-43 0 -43 31zM637 780h123q129 0 129 146q0 147 -129 147 h-123v-293z" />
<glyph unicode="&#xaf;" horiz-adv-x="532" d="M0 1356q0 45 43 45h444q16 0 30.5 -13.5t14.5 -32t-13 -29.5t-32 -11h-444q-43 0 -43 41z" />
<glyph unicode="&#xb0;" horiz-adv-x="870" d="M72 1204.5q0 147.5 107.5 258t255 110.5t256 -108.5t108.5 -260.5q0 -147 -109.5 -260t-255 -113t-254 113t-108.5 260.5zM160 1204.5q0 -110.5 81 -197.5t193.5 -87t194.5 87t82 197q0 109 -82 195t-194.5 86t-193.5 -85t-81 -195.5z" />
<glyph unicode="&#xb1;" horiz-adv-x="972" d="M115 174.5q0 20.5 12 33.5t31 13h655q18 0 31.5 -14t13.5 -32.5t-13.5 -32t-31.5 -13.5h-655q-18 0 -30.5 12.5t-12.5 33zM115 715q0 20 12 33.5t31 13.5h282v276q0 18 13.5 31.5t33.5 13.5q18 0 31.5 -13t13.5 -32v-276h281q18 0 31.5 -14.5t13.5 -32.5 q0 -20 -13.5 -33.5t-31.5 -13.5h-281v-279q0 -18 -12 -30.5t-32.5 -12.5t-34 12.5t-13.5 30.5v279h-282q-43 0 -43 47z" />
<glyph unicode="&#xb2;" horiz-adv-x="620" d="M72 768v100q0 57 60.5 113.5t134 96.5t134 97.5t60.5 114.5q0 51 -40 89t-112 38q-61 0 -98 -29.5t-37 -84.5q0 -12 -12 -22.5t-33 -10.5q-39 0 -39 49q0 78 63.5 128t157.5 50q100 0 167 -58.5t67 -144.5q0 -61 -40 -115.5t-96.5 -93t-113.5 -72.5t-97 -71t-40 -74v-53 h364q12 0 21.5 -11t9.5 -27.5t-9 -28t-22 -11.5h-411q-14 0 -26.5 9.5t-12.5 21.5z" />
<glyph unicode="&#xb3;" horiz-adv-x="632" d="M66 907q0 23 9 31t29 8q45 0 46 -33q0 -39 37.5 -71.5t119.5 -32.5q164 0 164 145v19q0 127 -162 127q-33 0 -33 35q0 37 33 36q70 0 105 28t35 97q0 125 -136 125q-78 0 -110.5 -30.5t-32.5 -71.5q0 -37 -41 -37q-27 0 -35 9t-8 34q0 63 53.5 117.5t175.5 54.5 q215 0 215 -184q0 -135 -94 -174q117 -43 117 -166v-19q0 -115 -67.5 -169t-176.5 -54q-115 0 -179 54t-64 122z" />
<glyph unicode="&#xb4;" horiz-adv-x="292" d="M0 1268q0 23 18 30l220 125q8 4 16 4q18 0 28.5 -14t10.5 -33q0 -27 -23 -41l-204 -112q-8 -6 -21 -6q-18 0 -31.5 14.5t-13.5 32.5z" />
<glyph unicode="&#xb5;" horiz-adv-x="989" d="M152 -438v1362q0 16 14 29.5t34.5 13.5t36 -13.5t15.5 -29.5v-605q0 -72 89 -154.5t189 -82.5q102 0 181.5 87t79.5 193v562q0 43 49 43q51 0 51 -43v-562q0 -156 -105.5 -265t-259.5 -109q-92 0 -166.5 41t-111.5 102v-569q0 -18 -14.5 -30.5t-32.5 -12.5 q-20 0 -34.5 12.5t-14.5 30.5z" />
<glyph unicode="&#xb6;" horiz-adv-x="1058" d="M72 1051v24q0 219 109.5 320.5t291.5 101.5h379q43 0 43 -45v-1409q0 -43 -43 -43q-45 0 -45 43v1372h-156v-1370q0 -45 -43 -45q-45 0 -45 45v582h-90q-182 0 -291.5 102.5t-109.5 321.5z" />
<glyph unicode="&#xb7;" horiz-adv-x="362" d="M98 614q0 35 23.5 58.5t60.5 23.5q35 0 58.5 -24.5t23.5 -57t-24.5 -57.5t-57.5 -25q-37 0 -60.5 24.5t-23.5 57.5z" />
<glyph unicode="&#xb8;" horiz-adv-x="329" d="M0 -377q0 12 8 27.5t21 15.5l37 -14q37 -12 77 -12q111 0 111 81q0 80 -137 91l-68 4l51 202h72l-37 -147q98 -2 146.5 -44t48.5 -101q0 -61 -46 -106.5t-128 -45.5q-49 0 -102.5 13t-53.5 36z" />
<glyph unicode="&#xb9;" horiz-adv-x="333" d="M43 1333q0 18 16 35l101 117q16 12 30 12q12 0 23.5 -9t11.5 -22v-698q0 -31 -41 -31q-43 0 -43 31v600l-45 -57q-8 -12 -20 -13q-33 0 -33 35z" />
<glyph unicode="&#xba;" horiz-adv-x="665" d="M86 1126v138q0 98 72.5 169.5t175.5 71.5q98 0 172 -71.5t74 -169.5v-138q0 -96 -74 -170.5t-172 -74.5q-100 0 -174 73.5t-74 171.5zM176 1126q0 -66 46 -114.5t112 -48.5q63 0 109 50t46 113v138q0 63 -45 111t-110.5 48t-111.5 -48t-46 -111v-138z" />
<glyph unicode="&#xbb;" horiz-adv-x="780" d="M82 201q0 12 6 20l188 346l-188 348q-6 10 -6 21q0 18 16.5 33.5t36.5 15.5q27 0 41 -20l189 -353q16 -27 16 -45t-16 -45l-189 -350q-12 -20 -37 -20q-20 0 -38.5 15.5t-18.5 33.5zM406 201q0 12 6 20l188 346l-188 348q-6 10 -6 21q0 18 16 33.5t37 15.5q31 0 41 -20 l190 -353q14 -29 14.5 -45t-14.5 -45l-190 -350q-12 -20 -37 -20q-20 0 -38.5 15.5t-18.5 33.5z" />
<glyph unicode="&#xbc;" horiz-adv-x="1206" d="M68 1333q0 18 16 35l100 117q16 12 31 12q12 0 23.5 -9t11.5 -22v-698q0 -31 -41 -31q-43 0 -43 31v600l-45 -57q-8 -12 -21 -13q-32 0 -32 35zM141 -8.5q0 14.5 4 22.5l793 1538q8 20 33 21q16 0 31.5 -13.5t15.5 -33.5q0 -10 -6 -23l-787 -1523q-12 -27 -41 -27 q-16 0 -29.5 12t-13.5 26.5zM651 209q0 6 4 18l289 506q12 27 39 27q14 0 27.5 -10.5t13.5 -24.5q0 -6 -4 -14l-260 -455h215v178q0 29 41 29q43 0 43 -29v-178h63q33 0 33 -41q0 -14 -10 -26.5t-23 -12.5h-63v-145q0 -31 -43 -31q-41 0 -41 31v145h-293q-31 0 -31 33z" />
<glyph unicode="&#xbd;" horiz-adv-x="1255" d="M74 1333q0 18 16 35l100 117q16 12 31 12q12 0 23.5 -9t11.5 -22v-698q0 -31 -41 -31q-43 0 -43 31v600l-45 -57q-8 -12 -21 -13q-32 0 -32 35zM115 -8.5q0 14.5 4 22.5l792 1538q8 20 33 21q16 0 31.5 -13.5t15.5 -33.5q0 -10 -6 -23l-786 -1523q-12 -27 -41 -27 q-16 0 -29.5 12t-13.5 26.5zM702 31v100q0 57 60.5 113.5t134.5 96.5t134.5 97.5t60.5 114.5q0 51 -40 89t-112 38q-61 0 -98 -29.5t-37 -85.5q0 -12 -12.5 -22.5t-32.5 -10.5q-39 0 -39 50q0 78 63.5 128t157.5 50q100 0 167 -58.5t67 -144.5q0 -61 -40 -115.5t-97.5 -93.5 t-114 -72.5t-96.5 -70.5t-40 -72v-55h365q12 0 21.5 -11.5t9.5 -27.5q0 -14 -9.5 -26.5t-21.5 -12.5h-412q-14 0 -26.5 9.5t-12.5 21.5z" />
<glyph unicode="&#xbe;" horiz-adv-x="1474" d="M70 907q0 23 9 31t30 8q45 0 45 -33q0 -39 37.5 -71.5t119.5 -32.5q164 0 164 145v19q0 127 -162 127q-33 0 -32 35q0 37 32 36q70 0 105 28t35 97q0 125 -136 125q-78 0 -110.5 -30.5t-32.5 -71.5q0 -37 -41 -37q-27 0 -35 9t-8 34q0 63 53.5 117.5t175.5 54.5 q215 0 216 -184q0 -135 -95 -174q117 -43 117 -166v-19q0 -115 -67.5 -169t-176.5 -54q-115 0 -179 54t-64 122zM395 -8.5q0 14.5 4 22.5l793 1538q8 20 33 21q16 0 31.5 -13.5t15.5 -33.5q0 -10 -6 -23l-787 -1523q-12 -27 -41 -27q-16 0 -29.5 12t-13.5 26.5zM920 209 q0 6 4 18l288 506q12 27 39 27q14 0 27.5 -10.5t13.5 -24.5q0 -6 -4 -14l-260 -455h215v178q0 29 41 29q43 0 43 -29v-178h64q33 0 32 -41q0 -14 -10 -26.5t-22 -12.5h-64v-145q0 -31 -43 -31q-41 0 -41 31v145h-293q-30 0 -30 33z" />
<glyph unicode="&#xbf;" horiz-adv-x="798" d="M74 356q0 92 34.5 175t73.5 126t98.5 100.5t75.5 78.5q41 47 51.5 113.5t10.5 207.5q0 41 45 41q43 0 43 -47q0 -166 -18.5 -243t-59.5 -122q-18 -20 -75.5 -73.5t-90.5 -91t-63.5 -108.5t-30.5 -151q0 -135 74.5 -209.5t218.5 -74.5q78 0 130 22.5t78.5 46t41 23.5 t27 -13.5t12.5 -31.5q0 -47 -90.5 -92t-206.5 -45q-184 0 -281.5 103t-97.5 265zM381 1444q0 35 23.5 59.5t58.5 24.5t58.5 -24.5t23.5 -59.5t-24.5 -59.5t-57.5 -24.5t-57.5 24.5t-24.5 59.5z" />
<glyph unicode="&#xc0;" horiz-adv-x="1085" d="M47 45q0 8 2 12l438 1416q12 37 57.5 36.5t57.5 -36.5l434 -1416q0 -2 1 -5t1 -7q0 -18 -18.5 -31.5t-40.5 -13.5q-33 0 -41 31l-100 325h-590l-98 -325q-10 -31 -46 -31q-23 0 -40 12.5t-17 32.5zM274 451h535l-264 874zM393 1907q0 18 11.5 32.5t29.5 14.5q6 0 15 -4 l219 -125q18 -8 18 -31q0 -18 -13.5 -32.5t-31.5 -14.5q-8 0 -20 6l-205 113q-23 14 -23 41z" />
<glyph unicode="&#xc1;" horiz-adv-x="1085" d="M47 45q0 8 2 12l438 1416q12 37 57.5 36.5t57.5 -36.5l434 -1416q0 -2 1 -5t1 -7q0 -18 -18.5 -31.5t-40.5 -13.5q-33 0 -41 31l-100 325h-590l-98 -325q-10 -31 -46 -31q-23 0 -40 12.5t-17 32.5zM274 451h535l-264 874zM406 1794q0 23 18 31l219 125q8 4 16 4 q18 0 28.5 -14.5t10.5 -32.5q0 -27 -22 -41l-205 -113q-8 -6 -20 -6q-18 0 -31.5 14.5t-13.5 32.5z" />
<glyph unicode="&#xc2;" horiz-adv-x="1085" d="M47 45q0 8 2 12l438 1416q12 37 57.5 36.5t57.5 -36.5l434 -1416q0 -2 1 -5t1 -7q0 -18 -18.5 -31.5t-40.5 -13.5q-33 0 -41 31l-100 325h-590l-98 -325q-10 -31 -46 -31q-23 0 -40 12.5t-17 32.5zM272 1794q0 25 23 35l213 115q16 10 34.5 10t35.5 -10l213 -113 q23 -12 22 -41q0 -16 -11 -28.5t-28 -12.5l-18 6l-213 113l-213 -115q-2 0 -8.5 -3t-8.5 -3q-16 0 -28.5 13.5t-12.5 33.5zM274 451h535l-264 874z" />
<glyph unicode="&#xc3;" horiz-adv-x="1085" d="M47 45q0 8 2 12l438 1416q12 37 57.5 36.5t57.5 -36.5l434 -1416q0 -2 1 -5t1 -7q0 -18 -18.5 -31.5t-40.5 -13.5q-33 0 -41 31l-100 325h-590l-98 -325q-10 -31 -46 -31q-23 0 -40 12.5t-17 32.5zM236 1833q0 45 62 78t120 33q51 0 131 -37t133 -37t90 31.5t47 31.5 q14 0 24.5 -12t10.5 -27q0 -49 -58.5 -79.5t-113.5 -30.5q-51 0 -131 37t-137 37q-51 0 -94.5 -34t-51.5 -34q-32 0 -32 43zM274 451h535l-264 874z" />
<glyph unicode="&#xc4;" horiz-adv-x="1085" d="M47 45q0 8 2 12l438 1416q12 37 57.5 36.5t57.5 -36.5l434 -1416q0 -2 1 -5t1 -7q0 -18 -18.5 -31.5t-40.5 -13.5q-33 0 -41 31l-100 325h-590l-98 -325q-10 -31 -46 -31q-23 0 -40 12.5t-17 32.5zM274 451h535l-264 874zM356 1816.5q0 28.5 19.5 47t48.5 18.5t47 -18.5 t18 -47t-18 -48t-47 -19.5t-48.5 19.5t-19.5 48zM596 1816.5q0 28.5 18.5 47t49.5 18.5q29 0 47 -18.5t18 -47t-18.5 -48t-46.5 -19.5q-31 0 -49.5 19.5t-18.5 48z" />
<glyph unicode="&#xc5;" horiz-adv-x="1085" d="M47 45q0 8 2 12l438 1416q12 37 57.5 36.5t57.5 -36.5l434 -1416q0 -2 1 -5t1 -7q0 -18 -18.5 -31.5t-40.5 -13.5q-33 0 -41 31l-100 325h-590l-98 -325q-10 -31 -46 -31q-23 0 -40 12.5t-17 32.5zM274 451h535l-264 874zM356 1911q0 76 54.5 132t132.5 56q74 0 130 -56 t56 -132t-56.5 -134.5t-129.5 -58.5q-76 0 -131.5 57.5t-55.5 135.5zM414 1911q0 -51 39 -94t90 -43t89 42t38 95q0 47 -38 87t-89 40t-90 -40t-39 -87z" />
<glyph unicode="&#xc6;" horiz-adv-x="1427" d="M156 55v1012q0 223 112.5 326.5t298.5 103.5h764q41 0 41 -47q0 -51 -41 -51h-483v-602h315q18 0 30.5 -14.5t12.5 -34.5q0 -45 -43 -46h-315v-604h483q41 0 41 -51q0 -47 -41 -47h-536q-49 0 -50 45v657h-489v-647q0 -55 -51 -55q-49 0 -49 55zM256 797h489v602h-178 q-150 0 -230.5 -83t-80.5 -249v-270z" />
<glyph unicode="&#xc7;" horiz-adv-x="1058" d="M147 418v649q0 221 116 325.5t302 104.5q188 0 298 -97t110 -235q0 -39 -12.5 -53t-38.5 -14q-51 0 -52 43q-2 43 -15 81t-43 82t-93.5 69.5t-153.5 25.5q-315 0 -315 -332v-649q0 -332 321 -332q74 0 128.5 18.5t84 42t49 65.5t25.5 66.5t12 67.5q4 43 50 43 q29 0 41 -14.5t12 -55.5q0 -121 -91 -214t-249 -111l-31 -123q98 -2 146.5 -44t48.5 -101q0 -61 -46 -106.5t-128 -45.5q-49 0 -102.5 13.5t-53.5 35.5q0 12 8 27.5t21 15.5l36 -14q37 -12 78 -12q111 0 111 81q0 80 -137 91l-68 4l43 172q-184 0 -298 104.5t-114 325.5z " />
<glyph unicode="&#xc8;" horiz-adv-x="1030" d="M162 45v1407q0 45 49 45h729q43 0 43 -47q0 -20 -12.5 -35.5t-30.5 -15.5h-676v-602h326q18 0 30.5 -14.5t12.5 -34.5q0 -45 -43 -46h-326v-604h676q18 0 30.5 -15t12.5 -36q0 -47 -43 -47h-729q-49 0 -49 45zM424 1907q0 18 11 32.5t30 14.5q6 0 14 -4l219 -125 q18 -8 19 -31q0 -18 -13.5 -32.5t-31.5 -14.5q-8 0 -21 6l-205 113q-22 14 -22 41z" />
<glyph unicode="&#xc9;" horiz-adv-x="1030" d="M162 45v1407q0 45 49 45h729q43 0 43 -47q0 -20 -12.5 -35.5t-30.5 -15.5h-676v-602h326q18 0 30.5 -14.5t12.5 -34.5q0 -45 -43 -46h-326v-604h676q18 0 30.5 -15t12.5 -36q0 -47 -43 -47h-729q-49 0 -49 45zM430 1794q0 23 19 31l219 125q8 4 16 4q18 0 28.5 -14.5 t10.5 -32.5q0 -27 -23 -41l-204 -113q-8 -6 -21 -6q-18 0 -31.5 14.5t-13.5 32.5z" />
<glyph unicode="&#xca;" horiz-adv-x="1030" d="M162 45v1407q0 45 49 45h729q43 0 43 -47q0 -20 -12.5 -35.5t-30.5 -15.5h-676v-602h326q18 0 30.5 -14.5t12.5 -34.5q0 -45 -43 -46h-326v-604h676q18 0 30.5 -15t12.5 -36q0 -47 -43 -47h-729q-49 0 -49 45zM303 1794q0 25 23 35l213 115q16 10 34.5 10t34.5 -10 l213 -113q23 -12 23 -41q0 -16 -11.5 -28.5t-27.5 -12.5l-19 6l-213 113l-213 -115q-2 0 -8 -3t-8 -3q-16 0 -28.5 13.5t-12.5 33.5z" />
<glyph unicode="&#xcb;" horiz-adv-x="1030" d="M162 45v1407q0 45 49 45h729q43 0 43 -47q0 -20 -12.5 -35.5t-30.5 -15.5h-676v-602h326q18 0 30.5 -14.5t12.5 -34.5q0 -45 -43 -46h-326v-604h676q18 0 30.5 -15t12.5 -36q0 -47 -43 -47h-729q-49 0 -49 45zM385 1816.5q0 28.5 19.5 47t48 18.5t47 -18.5t18.5 -47 t-18.5 -48t-47 -19.5t-48 19.5t-19.5 48zM625 1816.5q0 28.5 18.5 47t48.5 18.5q29 0 47.5 -18.5t18.5 -47t-18.5 -48t-47.5 -19.5q-31 0 -49 19.5t-18 48z" />
<glyph unicode="&#xcc;" horiz-adv-x="425" d="M63 1907q0 18 11.5 32.5t29.5 14.5q6 0 15 -4l219 -125q18 -8 18 -31q0 -18 -13 -32.5t-32 -14.5q-8 0 -20 6l-205 113q-23 14 -23 41zM162 45v1409q0 43 51 43t51 -43v-1409q0 -45 -51 -45t-51 45z" />
<glyph unicode="&#xcd;" horiz-adv-x="425" d="M68 1794q0 23 18 31l219 125q8 4 17 4q18 0 28 -14.5t10 -32.5q0 -27 -22 -41l-205 -113q-10 -6 -20 -6q-18 0 -31.5 14.5t-13.5 32.5zM162 45v1409q0 43 51 43t51 -43v-1409q0 -45 -51 -45t-51 45z" />
<glyph unicode="&#xce;" horiz-adv-x="425" d="M-55 1794q0 25 22 35l213 115q16 10 34.5 10t35.5 -10l213 -113q23 -12 22 -41q0 -16 -11 -28.5t-28 -12.5l-18 6l-213 113l-213 -115q-2 0 -8 -3t-8 -3q-16 0 -28.5 13.5t-12.5 33.5zM162 45v1409q0 43 51 43t51 -43v-1409q0 -45 -51 -45t-51 45z" />
<glyph unicode="&#xcf;" horiz-adv-x="425" d="M27 1816.5q0 28.5 19.5 47t48 18.5t47 -18.5t18.5 -47t-18.5 -48t-47 -19.5t-48 19.5t-19.5 48zM162 45v1409q0 43 51 43t51 -43v-1409q0 -45 -51 -45t-51 45zM266 1816.5q0 28.5 18.5 47t49.5 18.5q29 0 47 -18.5t18 -47t-18.5 -48t-46.5 -19.5q-31 0 -49.5 19.5 t-18.5 48z" />
<glyph unicode="&#xd0;" horiz-adv-x="1155" d="M2 786.5q0 18.5 11.5 31.5t29.5 13h139v623q0 16 14.5 29.5t34.5 13.5h363q186 0 300 -103.5t114 -326.5v-637q0 -223 -114 -326.5t-300 -103.5h-363q-20 0 -34.5 13.5t-14.5 29.5v698h-139q-18 0 -29.5 13.5t-11.5 32zM285 98h309q150 0 230.5 83t80.5 249v637 q0 166 -81 249t-230 83h-309v-568h252q16 0 28.5 -13t12.5 -31.5t-12.5 -32t-28.5 -13.5h-252v-643z" />
<glyph unicode="&#xd1;" horiz-adv-x="1153" d="M162 45v1409q0 43 51 43q39 0 84 -84l592 -1169v1210q0 43 51 43t51 -43v-1409q0 -45 -51 -45q-33 0 -74 76l-602 1179v-1210q0 -45 -51 -45t-51 45zM266 1833q0 45 62.5 78t120.5 33q51 0 130.5 -37t133 -37t90.5 31.5t47 31.5q14 0 24.5 -12t10.5 -27 q0 -49 -58.5 -79.5t-113.5 -30.5q-51 0 -131 37t-138 37q-51 0 -94 -34t-51 -34q-33 0 -33 43z" />
<glyph unicode="&#xd2;" horiz-adv-x="1120" d="M147 418v649q0 223 112 326.5t300 103.5q186 0 300 -103.5t114 -326.5v-649q0 -223 -114 -326.5t-300 -103.5q-188 0 -300 103.5t-112 326.5zM250 418q0 -332 309 -332q150 0 230.5 83t80.5 249v649q0 166 -80.5 249t-230.5 83q-309 0 -309 -332v-649zM410 1907 q0 18 11 32.5t30 14.5q6 0 14 -4l219 -125q18 -8 18 -31q0 -18 -13 -32.5t-32 -14.5q-8 0 -20 6l-205 113q-22 14 -22 41z" />
<glyph unicode="&#xd3;" horiz-adv-x="1120" d="M147 418v649q0 223 112 326.5t300 103.5q186 0 300 -103.5t114 -326.5v-649q0 -223 -114 -326.5t-300 -103.5q-188 0 -300 103.5t-112 326.5zM250 418q0 -332 309 -332q150 0 230.5 83t80.5 249v649q0 166 -80.5 249t-230.5 83q-309 0 -309 -332v-649zM424 1794 q0 23 18 31l220 125q8 4 16 4q18 0 28.5 -14.5t10.5 -32.5q0 -27 -23 -41l-205 -113q-10 -6 -20 -6q-18 0 -31.5 14.5t-13.5 32.5z" />
<glyph unicode="&#xd4;" horiz-adv-x="1120" d="M147 418v649q0 223 112 326.5t300 103.5q186 0 300 -103.5t114 -326.5v-649q0 -223 -114 -326.5t-300 -103.5q-188 0 -300 103.5t-112 326.5zM250 418q0 -332 309 -332q150 0 230.5 83t80.5 249v649q0 166 -80.5 249t-230.5 83q-309 0 -309 -332v-649zM289 1794 q0 25 22 35l213 115q16 10 35 10t35 -10l213 -113q23 -12 22 -41q0 -16 -11 -28.5t-27 -12.5l-19 6l-213 113l-213 -115q-2 0 -8 -3t-8 -3q-16 0 -28.5 13.5t-12.5 33.5z" />
<glyph unicode="&#xd5;" horiz-adv-x="1120" d="M147 418v649q0 223 112 326.5t300 103.5q186 0 300 -103.5t114 -326.5v-649q0 -223 -114 -326.5t-300 -103.5q-188 0 -300 103.5t-112 326.5zM250 418q0 -332 309 -332q150 0 230.5 83t80.5 249v649q0 166 -80.5 249t-230.5 83q-309 0 -309 -332v-649zM250 1833 q0 45 62.5 78t119.5 33q51 0 131 -37t133.5 -37t90 31.5t47.5 31.5q14 0 24 -12t10 -27q0 -49 -58 -79.5t-114 -30.5q-51 0 -131 37t-137 37q-51 0 -94 -34t-51 -34q-33 0 -33 43z" />
<glyph unicode="&#xd6;" horiz-adv-x="1120" d="M147 418v649q0 223 112 326.5t300 103.5q186 0 300 -103.5t114 -326.5v-649q0 -223 -114 -326.5t-300 -103.5q-188 0 -300 103.5t-112 326.5zM250 418q0 -332 309 -332q150 0 230.5 83t80.5 249v649q0 166 -80.5 249t-230.5 83q-309 0 -309 -332v-649zM373 1816.5 q0 28.5 19.5 47t48 18.5t47 -18.5t18.5 -47t-18.5 -48t-47 -19.5t-48 19.5t-19.5 48zM612 1816.5q0 28.5 18.5 47t49.5 18.5q29 0 47 -18.5t18 -47t-18 -48t-47 -19.5q-31 0 -49.5 19.5t-18.5 48z" />
<glyph unicode="&#xd7;" horiz-adv-x="808" d="M127 336q0 12 12 29l203 198l-203 199q-10 10 -10 31q0 18 14.5 32.5t32.5 14.5q16 0 31 -11l196 -200l199 200q14 10 31 11q18 0 32.5 -14.5t14.5 -32.5q0 -20 -10 -31l-203 -199l203 -198q12 -16 12 -29q0 -18 -15.5 -33.5t-33.5 -15.5q-14 0 -29 12l-201 199 l-198 -199q-16 -12 -29 -12q-18 0 -33.5 15.5t-15.5 33.5z" />
<glyph unicode="&#xd8;" horiz-adv-x="1120" d="M123 -8q0 14 4 22l76 150q-55 100 -56 254v649q0 223 112 326.5t300 103.5q178 0 283 -90l76 145q10 20 34 21q16 0 31.5 -13.5t15.5 -33.5q0 -12 -8 -23l-86 -168q68 -102 68 -268v-649q0 -223 -114 -326.5t-300 -103.5q-195 0 -297 100l-55 -108q-14 -27 -43 -27 q-16 0 -28.5 11.5t-12.5 27.5zM250 418q0 -72 16 -133l527 1026q-80 88 -234 88q-309 0 -309 -332v-649zM313 186q80 -100 246 -100q150 0 230.5 83t80.5 249v649q0 88 -24 154z" />
<glyph unicode="&#xd9;" horiz-adv-x="1140" d="M156 418v1036q0 43 51 43t51 -43v-1036q0 -166 81 -249t230.5 -83t231.5 83t82 249v1036q0 43 51 43t51 -43v-1036q0 -223 -113.5 -326.5t-302 -103.5t-301 103.5t-112.5 326.5zM418 1907q0 18 11 32.5t30 14.5q6 0 14 -4l219 -125q18 -8 19 -31q0 -18 -13.5 -32.5 t-31.5 -14.5q-8 0 -21 6l-205 113q-22 14 -22 41z" />
<glyph unicode="&#xda;" horiz-adv-x="1140" d="M156 418v1036q0 43 51 43t51 -43v-1036q0 -166 81 -249t230.5 -83t231.5 83t82 249v1036q0 43 51 43t51 -43v-1036q0 -223 -113.5 -326.5t-302 -103.5t-301 103.5t-112.5 326.5zM430 1794q0 23 19 31l219 125q8 4 16 4q18 0 28.5 -14.5t10.5 -32.5q0 -27 -23 -41 l-204 -113q-8 -6 -21 -6q-18 0 -31.5 14.5t-13.5 32.5z" />
<glyph unicode="&#xdb;" horiz-adv-x="1140" d="M156 418v1036q0 43 51 43t51 -43v-1036q0 -166 81 -249t230.5 -83t231.5 83t82 249v1036q0 43 51 43t51 -43v-1036q0 -223 -113.5 -326.5t-302 -103.5t-301 103.5t-112.5 326.5zM297 1794q0 25 22 35l213 115q16 10 35 10t35 -10l213 -113q23 -12 23 -41 q0 -16 -11.5 -28.5t-27.5 -12.5l-19 6l-213 113l-213 -115q-2 0 -8 -3t-8 -3q-16 0 -28.5 13.5t-12.5 33.5z" />
<glyph unicode="&#xdc;" horiz-adv-x="1140" d="M156 418v1036q0 43 51 43t51 -43v-1036q0 -166 81 -249t230.5 -83t231.5 83t82 249v1036q0 43 51 43t51 -43v-1036q0 -223 -113.5 -326.5t-302 -103.5t-301 103.5t-112.5 326.5zM383 1816.5q0 28.5 19.5 47t48 18.5t47 -18.5t18.5 -47t-18.5 -48t-47 -19.5t-48 19.5 t-19.5 48zM623 1816.5q0 28.5 18 47t49 18.5q29 0 47.5 -18.5t18.5 -47t-18.5 -48t-47.5 -19.5q-31 0 -49 19.5t-18 48z" />
<glyph unicode="&#xdd;" horiz-adv-x="1064" d="M43 1452q0 20 14.5 32.5t34.5 12.5q27 0 47 -37l393 -788l396 788q18 37 47 37q18 0 31.5 -12t13.5 -33q0 -23 -8 -39l-426 -833q-2 -4 -2 -15v-520q0 -45 -51.5 -45t-51.5 45v520q0 6 -4 15l-424 833q-10 27 -10 39zM389 1794q0 23 19 31l219 125q8 4 16 4 q18 0 28.5 -14.5t10.5 -32.5q0 -27 -23 -41l-204 -113q-8 -6 -21 -6q-18 0 -31.5 14.5t-13.5 32.5z" />
<glyph unicode="&#xde;" d="M162 45v1415q0 41 49 41q51 0 51 -43v-346q90 156 289 156q145 0 248.5 -85t103.5 -229v-364q0 -143 -104.5 -229.5t-237.5 -86.5q-98 0 -185 45.5t-114 114.5v-389q0 -16 -14.5 -30.5t-34.5 -14.5t-35.5 14.5t-15.5 30.5zM262 588q0 -82 82 -150.5t199 -68.5 q104 0 182 58t78 163v364q0 102 -77 159.5t-183 57.5q-115 0 -198 -61t-83 -156v-366z" />
<glyph unicode="&#xdf;" horiz-adv-x="1103" d="M14 922q0 18 11.5 31.5t29.5 13.5h158v233q0 164 80 268.5t246 104.5q152 0 243.5 -93.5t91.5 -275.5q0 -119 -38.5 -220t-108.5 -134q109 -20 200 -139t91 -269v-36q0 -217 -104.5 -332t-249.5 -115q-72 0 -147 18.5t-75 63.5q0 18 11.5 32.5t25.5 14.5q4 0 56.5 -20.5 t109.5 -20.5q129 0 204 91t75 263v39q0 131 -80 234.5t-250 118.5q-25 2 -36 5t-20.5 12t-9.5 28q0 43 68 47q184 10 184 289q0 143 -60.5 223t-176.5 80q-121 0 -175.5 -78t-54.5 -199v-1157q0 -18 -15 -30.5t-38 -12.5q-47 0 -47 43v836h-158q-41 0 -41 43z" />
<glyph unicode="&#xe0;" horiz-adv-x="882" d="M68 258q0 154 121.5 214t355.5 60h110v54q0 123 -64.5 212t-193.5 89q-78 0 -145.5 -29t-69.5 -29q-20 0 -32.5 18.5t-12.5 37.5q0 35 85 64.5t179 29.5q182 0 268.5 -111.5t86.5 -281.5v-541q0 -18 -14.5 -31.5t-35 -13.5t-35 13.5t-14.5 31.5v98q-135 -156 -307 -155 q-125 0 -203.5 68.5t-78.5 201.5zM168 262q0 -92 54 -138t143 -46q104 0 197 74.5t93 146.5v152h-100q-88 0 -147.5 -6.5t-119 -24t-90 -57.5t-30.5 -101zM264 1380q0 18 11.5 32.5t29.5 14.5q6 0 14 -4l220 -125q18 -8 18 -30q0 -18 -13.5 -32.5t-31.5 -14.5q-8 0 -20 6 l-205 112q-23 14 -23 41z" />
<glyph unicode="&#xe1;" horiz-adv-x="882" d="M68 258q0 154 121.5 214t355.5 60h110v54q0 123 -64.5 212t-193.5 89q-78 0 -145.5 -29t-69.5 -29q-20 0 -32.5 18.5t-12.5 37.5q0 35 85 64.5t179 29.5q182 0 268.5 -111.5t86.5 -281.5v-541q0 -18 -14.5 -31.5t-35 -13.5t-35 13.5t-14.5 31.5v98q-135 -156 -307 -155 q-125 0 -203.5 68.5t-78.5 201.5zM168 262q0 -92 54 -138t143 -46q104 0 197 74.5t93 146.5v152h-100q-88 0 -147.5 -6.5t-119 -24t-90 -57.5t-30.5 -101zM270 1268q0 23 19 30l219 125q8 4 16 4q18 0 28.5 -14t10.5 -33q0 -27 -22 -41l-205 -112q-8 -6 -21 -6 q-18 0 -31.5 14.5t-13.5 32.5z" />
<glyph unicode="&#xe2;" horiz-adv-x="882" d="M68 258q0 154 121.5 214t355.5 60h110v54q0 123 -64.5 212t-193.5 89q-78 0 -145.5 -29t-69.5 -29q-20 0 -32.5 18.5t-12.5 37.5q0 35 85 64.5t179 29.5q182 0 268.5 -111.5t86.5 -281.5v-541q0 -18 -14.5 -31.5t-35 -13.5t-35 13.5t-14.5 31.5v98q-135 -156 -307 -155 q-125 0 -203.5 68.5t-78.5 201.5zM147 1268q0 23 23 35l213 114q16 10 34.5 10t35.5 -10l213 -112q23 -12 22 -41q0 -16 -11 -28.5t-28 -12.5l-18 6l-213 112l-213 -114q-2 0 -8.5 -3t-8.5 -3q-16 0 -28.5 13.5t-12.5 33.5zM168 262q0 -92 54 -138t143 -46q104 0 197 74.5 t93 146.5v152h-100q-88 0 -147.5 -6.5t-119 -24t-90 -57.5t-30.5 -101z" />
<glyph unicode="&#xe3;" horiz-adv-x="882" d="M68 258q0 154 121.5 214t355.5 60h110v54q0 123 -64.5 212t-193.5 89q-78 0 -145.5 -29t-69.5 -29q-20 0 -32.5 18.5t-12.5 37.5q0 35 85 64.5t179 29.5q182 0 268.5 -111.5t86.5 -281.5v-541q0 -18 -14.5 -31.5t-35 -13.5t-35 13.5t-14.5 31.5v98q-135 -156 -307 -155 q-125 0 -203.5 68.5t-78.5 201.5zM102 1307q0 45 62.5 77.5t120.5 32.5q51 0 131 -37t133 -37t90 32t47 32q14 0 24.5 -12.5t10.5 -26.5q0 -49 -58.5 -80t-113.5 -31q-51 0 -131 37t-137 37q-51 0 -94.5 -33.5t-51.5 -33.5q-33 0 -33 43zM168 262q0 -92 54 -138t143 -46 q104 0 197 74.5t93 146.5v152h-100q-88 0 -147.5 -6.5t-119 -24t-90 -57.5t-30.5 -101z" />
<glyph unicode="&#xe4;" horiz-adv-x="882" d="M68 258q0 154 121.5 214t355.5 60h110v54q0 123 -64.5 212t-193.5 89q-78 0 -145.5 -29t-69.5 -29q-20 0 -32.5 18.5t-12.5 37.5q0 35 85 64.5t179 29.5q182 0 268.5 -111.5t86.5 -281.5v-541q0 -18 -14.5 -31.5t-35 -13.5t-35 13.5t-14.5 31.5v98q-135 -156 -307 -155 q-125 0 -203.5 68.5t-78.5 201.5zM168 262q0 -92 54 -138t143 -46q104 0 197 74.5t93 146.5v152h-100q-88 0 -147.5 -6.5t-119 -24t-90 -57.5t-30.5 -101zM225 1290.5q0 28.5 19.5 47t48.5 18.5t47 -18.5t18 -47t-18 -48t-47 -19.5t-48.5 19.5t-19.5 48zM465 1290.5 q0 28.5 18.5 47t48.5 18.5q29 0 47.5 -18.5t18.5 -47t-18.5 -48t-47.5 -19.5q-31 0 -49 19.5t-18 48z" />
<glyph unicode="&#xe5;" horiz-adv-x="882" d="M68 258q0 154 121.5 214t355.5 60h110v54q0 123 -64.5 212t-193.5 89q-78 0 -145.5 -29t-69.5 -29q-20 0 -32.5 18.5t-12.5 37.5q0 35 85 64.5t179 29.5q182 0 268.5 -111.5t86.5 -281.5v-541q0 -18 -14.5 -31.5t-35 -13.5t-35 13.5t-14.5 31.5v98q-135 -156 -307 -155 q-125 0 -203.5 68.5t-78.5 201.5zM168 262q0 -92 54 -138t143 -46q104 0 197 74.5t93 146.5v152h-100q-88 0 -147.5 -6.5t-119 -24t-90 -57.5t-30.5 -101zM227 1384q0 76 54.5 132.5t132.5 56.5q74 0 130 -56.5t56 -132t-56.5 -134t-129.5 -58.5q-76 0 -131.5 57t-55.5 135z M285 1384q0 -51 38.5 -94t90 -43t89.5 42t38 95q0 47 -38 87t-89.5 40t-90 -40t-38.5 -87z" />
<glyph unicode="&#xe6;" horiz-adv-x="1480" d="M68 256q0 156 119.5 216t353.5 60h110v56q0 125 -64.5 213t-197.5 88q-74 0 -142.5 -29t-70.5 -29q-16 0 -29.5 19.5t-13.5 36.5q0 35 85 64.5t181 29.5q229 0 312 -199q47 88 133 142.5t186 54.5q143 0 258 -99.5t115 -295.5q0 -84 -34 -108.5t-138 -24.5h-471v-86 q0 -129 90 -207t231 -78q72 0 124 20.5t81 41t43 20.5q16 0 30.5 -15.5t14.5 -33.5q0 -45 -102.5 -85t-212.5 -40q-117 0 -214 55t-145 154q-59 -106 -154 -157.5t-194 -51.5q-123 0 -203.5 68.5t-80.5 199.5zM168 258q0 -88 54 -134t140 -46q111 0 200 74.5t89 146.5v152 h-100q-70 0 -119 -3.5t-103.5 -14.5t-86 -31.5t-53 -56.5t-21.5 -87zM760 535h432q72 0 92.5 14t20.5 55q0 115 -77 200t-196 85q-115 0 -193.5 -79t-78.5 -189v-86z" />
<glyph unicode="&#xe7;" horiz-adv-x="831" d="M100 367v233q0 168 97.5 273.5t287.5 105.5q117 0 197 -42t80 -83q0 -18 -14.5 -33.5t-32.5 -15.5q-10 0 -36 19.5t-75 40t-117 20.5q-137 0 -211.5 -76t-74.5 -209v-233q0 -135 73.5 -210t214.5 -75q72 0 123.5 20.5t78 41t38.5 20.5q18 0 31.5 -15.5t13.5 -33.5 q0 -39 -72.5 -79t-185.5 -46l-29 -119q98 -2 146.5 -44t48.5 -101q0 -61 -46 -106.5t-128 -45.5q-49 0 -102.5 13.5t-53.5 35.5q0 12 8.5 27.5t20.5 15.5l37 -14q37 -12 78 -12q111 0 110 81q0 80 -137 91l-68 4l43 174q-170 10 -257 112.5t-87 264.5z" />
<glyph unicode="&#xe8;" horiz-adv-x="923" d="M98 367v243q0 152 110.5 260.5t266.5 108.5q152 0 262.5 -106.5t110.5 -264.5q0 -55 -13.5 -89t-42 -48t-52 -17t-66.5 -3h-475v-86q0 -129 92 -207t237 -78q74 0 125.5 20.5t78 41t40.5 20.5q18 0 32.5 -16.5t14.5 -32.5q0 -39 -85 -82t-210 -43q-188 0 -307 104.5 t-119 274.5zM199 535h436q70 0 92.5 14t22.5 59q0 109 -78 195t-197 86q-115 0 -195.5 -80t-80.5 -191v-83zM324 1380q0 18 11 32.5t30 14.5q6 0 14 -4l219 -125q18 -8 18 -30q0 -18 -13 -32.5t-32 -14.5q-8 0 -20 6l-205 112q-22 14 -22 41z" />
<glyph unicode="&#xe9;" horiz-adv-x="923" d="M98 367v243q0 152 110.5 260.5t266.5 108.5q152 0 262.5 -106.5t110.5 -264.5q0 -55 -13.5 -89t-42 -48t-52 -17t-66.5 -3h-475v-86q0 -129 92 -207t237 -78q74 0 125.5 20.5t78 41t40.5 20.5q18 0 32.5 -16.5t14.5 -32.5q0 -39 -85 -82t-210 -43q-188 0 -307 104.5 t-119 274.5zM199 535h436q70 0 92.5 14t22.5 59q0 109 -78 195t-197 86q-115 0 -195.5 -80t-80.5 -191v-83zM328 1268q0 23 18 30l219 125q8 4 17 4q18 0 28.5 -14t10.5 -33q0 -27 -23 -41l-205 -112q-8 -6 -20 -6q-18 0 -31.5 14.5t-13.5 32.5z" />
<glyph unicode="&#xea;" horiz-adv-x="923" d="M98 367v243q0 152 110.5 260.5t266.5 108.5q152 0 262.5 -106.5t110.5 -264.5q0 -55 -13.5 -89t-42 -48t-52 -17t-66.5 -3h-475v-86q0 -129 92 -207t237 -78q74 0 125.5 20.5t78 41t40.5 20.5q18 0 32.5 -16.5t14.5 -32.5q0 -39 -85 -82t-210 -43q-188 0 -307 104.5 t-119 274.5zM199 535h436q70 0 92.5 14t22.5 59q0 109 -78 195t-197 86q-115 0 -195.5 -80t-80.5 -191v-83zM203 1268q0 23 22 35l213 114q16 10 35 10t35 -10l213 -112q23 -12 22 -41q0 -16 -11 -28.5t-27 -12.5l-19 6l-213 112l-213 -114q-2 0 -8 -3t-8 -3 q-16 0 -28.5 13.5t-12.5 33.5z" />
<glyph unicode="&#xeb;" horiz-adv-x="923" d="M98 367v243q0 152 110.5 260.5t266.5 108.5q152 0 262.5 -106.5t110.5 -264.5q0 -55 -13.5 -89t-42 -48t-52 -17t-66.5 -3h-475v-86q0 -129 92 -207t237 -78q74 0 125.5 20.5t78 41t40.5 20.5q18 0 32.5 -16.5t14.5 -32.5q0 -39 -85 -82t-210 -43q-188 0 -307 104.5 t-119 274.5zM199 535h436q70 0 92.5 14t22.5 59q0 109 -78 195t-197 86q-115 0 -195.5 -80t-80.5 -191v-83zM287 1290.5q0 28.5 19.5 47t48 18.5t47 -18.5t18.5 -47t-18.5 -48t-47 -19.5t-48 19.5t-19.5 48zM526 1290.5q0 28.5 18.5 47t49.5 18.5q29 0 47 -18.5t18 -47 t-18 -48t-47 -19.5q-31 0 -49.5 19.5t-18.5 48z" />
<glyph unicode="&#xec;" horiz-adv-x="370" d="M31 1380q0 18 11 32.5t30 14.5q6 0 14 -4l219 -125q18 -8 19 -30q0 -18 -13.5 -32.5t-31.5 -14.5q-8 0 -21 6l-205 112q-22 14 -22 41zM135 45v881q0 41 49 41q51 0 52 -41v-881q0 -16 -15.5 -30.5t-36 -14.5t-35 13.5t-14.5 31.5z" />
<glyph unicode="&#xed;" horiz-adv-x="370" d="M41 1268q0 23 18 30l220 125q8 4 16 4q18 0 28.5 -14t10.5 -33q0 -27 -23 -41l-205 -112q-8 -6 -20 -6q-18 0 -31.5 14.5t-13.5 32.5zM135 45v881q0 41 49 41q51 0 52 -41v-881q0 -16 -15.5 -30.5t-36 -14.5t-35 13.5t-14.5 31.5z" />
<glyph unicode="&#xee;" horiz-adv-x="370" d="M-86 1268q0 23 23 35l213 114q16 10 34.5 10t34.5 -10l213 -112q23 -12 23 -41q0 -16 -11.5 -28.5t-27.5 -12.5l-19 6l-213 112l-213 -114q-2 0 -8 -3t-8 -3q-16 0 -28.5 13.5t-12.5 33.5zM135 45v881q0 41 49 41q51 0 52 -41v-881q0 -16 -15.5 -30.5t-36 -14.5t-35 13.5 t-14.5 31.5z" />
<glyph unicode="&#xef;" horiz-adv-x="370" d="M0 1290.5q0 28.5 19.5 47t48 18.5t47 -18.5t18.5 -47t-18.5 -48t-47 -19.5t-48 19.5t-19.5 48zM135 45v881q0 41 49 41q51 0 52 -41v-881q0 -16 -15.5 -30.5t-36 -14.5t-35 13.5t-14.5 31.5zM240 1290.5q0 28.5 18 47t49 18.5q29 0 47.5 -18.5t18.5 -47t-18.5 -48 t-47.5 -19.5q-31 0 -49 19.5t-18 48z" />
<glyph unicode="&#xf0;" horiz-adv-x="972" d="M98 367v237q0 152 106.5 263.5t256.5 111.5q92 0 177 -47t112 -125q-27 293 -160 475l-187 -106q-8 -8 -20 -9q-16 0 -29.5 15.5t-13.5 34.5q0 25 20 32l175 101q-115 121 -250 120q-29 6 -29 43q0 55 61 56q160 0 308 -166l155 90q12 4 17 4q16 0 30.5 -14.5t14.5 -30.5 q0 -23 -21 -35l-145 -84q174 -246 174 -592v-374q0 -150 -113.5 -264.5t-263.5 -114.5q-152 0 -263.5 113.5t-111.5 265.5zM199 367q0 -111 80.5 -198t193.5 -87t195 87t82 198v245q0 106 -83 189.5t-196 83.5t-192.5 -86t-79.5 -195v-237z" />
<glyph unicode="&#xf1;" d="M135 45v881q0 41 49 41q20 0 34.5 -11.5t14.5 -29.5v-103q35 66 107 111t168 45q150 0 258 -110.5t108 -264.5v-559q0 -45 -51 -45q-49 0 -49 45v559q0 109 -82 195t-192 86q-104 0 -184 -77t-80 -204v-559q0 -16 -15.5 -30.5t-36 -14.5t-35 13.5t-14.5 31.5zM186 1307 q0 45 62.5 77.5t120.5 32.5q51 0 131 -37t133 -37t90 32t47 32q14 0 24.5 -12.5t10.5 -26.5q0 -49 -58.5 -80t-113.5 -31q-51 0 -131 37t-137 37q-51 0 -94.5 -33.5t-51.5 -33.5q-33 0 -33 43z" />
<glyph unicode="&#xf2;" horiz-adv-x="944" d="M96 367v237q0 152 110.5 263.5t264.5 111.5q152 0 264.5 -110.5t112.5 -264.5v-237q0 -150 -113.5 -264.5t-263 -114.5t-262.5 113.5t-113 265.5zM197 367q0 -111 80.5 -198t193.5 -87t195 87t82 198v237q0 109 -82 195t-195 86t-193.5 -86t-80.5 -195v-237zM322 1380 q0 18 11 32.5t29 14.5q6 0 15 -4l219 -125q18 -8 18 -30q0 -18 -13 -32.5t-32 -14.5q-8 0 -20 6l-205 112q-22 14 -22 41z" />
<glyph unicode="&#xf3;" horiz-adv-x="944" d="M96 367v237q0 152 110.5 263.5t264.5 111.5q152 0 264.5 -110.5t112.5 -264.5v-237q0 -150 -113.5 -264.5t-263 -114.5t-262.5 113.5t-113 265.5zM197 367q0 -111 80.5 -198t193.5 -87t195 87t82 198v237q0 109 -82 195t-195 86t-193.5 -86t-80.5 -195v-237zM326 1268 q0 23 18 30l219 125q8 4 17 4q18 0 28 -14t10 -33q0 -27 -22 -41l-205 -112q-10 -6 -20 -6q-18 0 -31.5 14.5t-13.5 32.5z" />
<glyph unicode="&#xf4;" horiz-adv-x="944" d="M96 367v237q0 152 110.5 263.5t264.5 111.5q152 0 264.5 -110.5t112.5 -264.5v-237q0 -150 -113.5 -264.5t-263 -114.5t-262.5 113.5t-113 265.5zM197 367q0 -111 80.5 -198t193.5 -87t195 87t82 198v237q0 109 -82 195t-195 86t-193.5 -86t-80.5 -195v-237zM201 1268 q0 23 22 35l213 114q16 10 34.5 10t35.5 -10l213 -112q23 -12 22 -41q0 -16 -11 -28.5t-28 -12.5l-18 6l-213 112l-213 -114q-2 0 -8 -3t-8 -3q-16 0 -28.5 13.5t-12.5 33.5z" />
<glyph unicode="&#xf5;" horiz-adv-x="944" d="M96 367v237q0 152 110.5 263.5t264.5 111.5q152 0 264.5 -110.5t112.5 -264.5v-237q0 -150 -113.5 -264.5t-263 -114.5t-262.5 113.5t-113 265.5zM164 1307q0 45 62.5 77.5t119.5 32.5q51 0 131 -37t133.5 -37t90 32t47.5 32q14 0 24 -12.5t10 -26.5q0 -49 -58 -80 t-114 -31q-51 0 -131 37t-137 37q-51 0 -94 -33.5t-51 -33.5q-33 0 -33 43zM197 367q0 -111 80.5 -198t193.5 -87t195 87t82 198v237q0 109 -82 195t-195 86t-193.5 -86t-80.5 -195v-237z" />
<glyph unicode="&#xf6;" horiz-adv-x="944" d="M96 367v237q0 152 110.5 263.5t264.5 111.5q152 0 264.5 -110.5t112.5 -264.5v-237q0 -150 -113.5 -264.5t-263 -114.5t-262.5 113.5t-113 265.5zM197 367q0 -111 80.5 -198t193.5 -87t195 87t82 198v237q0 109 -82 195t-195 86t-193.5 -86t-80.5 -195v-237zM285 1290.5 q0 28.5 19.5 47t48 18.5t47 -18.5t18.5 -47t-18.5 -48t-47 -19.5t-48 19.5t-19.5 48zM524 1290.5q0 28.5 18.5 47t49.5 18.5q29 0 47 -18.5t18 -47t-18 -48t-47 -19.5q-31 0 -49.5 19.5t-18.5 48z" />
<glyph unicode="&#xf7;" horiz-adv-x="937" d="M98 491.5q0 20.5 12.5 34t30.5 13.5h654q16 0 30.5 -13.5t14.5 -33.5q0 -18 -13.5 -32t-31.5 -14h-654q-18 0 -30.5 12.5t-12.5 33zM367 160q0 39 28.5 66.5t67.5 27.5q37 0 64.5 -27.5t27.5 -66.5q0 -37 -27.5 -64.5t-64.5 -27.5q-39 0 -67.5 27.5t-28.5 64.5zM367 823 q0 39 28.5 67t67.5 28q37 0 64.5 -28t27.5 -67q0 -37 -27.5 -64.5t-64.5 -27.5q-39 0 -67.5 27.5t-28.5 64.5z" />
<glyph unicode="&#xf8;" horiz-adv-x="944" d="M96 367v237q0 152 110.5 263.5t264.5 111.5q98 0 188 -53l56 100q8 16 28 16q14 0 27.5 -12t13.5 -29q0 -12 -8 -26l-53 -96q125 -111 125 -275v-237q0 -150 -113.5 -264.5t-263.5 -114.5q-106 0 -201 61l-49 -92q-12 -23 -35 -23q-14 0 -25 10.5t-11 24.5q0 10 6 21 l57 106q-117 113 -117 271zM197 367q0 -98 65 -181l352 656q-66 43 -143 43q-113 0 -193.5 -86t-80.5 -195v-237zM317 133q68 -51 154 -51q113 0 195 87t82 198v237q0 100 -74 184z" />
<glyph unicode="&#xf9;" d="M125 362v562q0 16 15.5 29.5t35.5 13.5q18 0 33.5 -13.5t15.5 -29.5v-562q0 -111 81 -195.5t193.5 -84.5t193.5 85t81 195v564q0 16 15.5 28.5t36 12.5t34.5 -12.5t14 -28.5v-564q0 -152 -110.5 -263t-264 -111t-264 112t-110.5 262zM348 1380q0 18 11.5 32.5t29.5 14.5 q6 0 14 -4l220 -125q18 -8 18 -30q0 -18 -13.5 -32.5t-31.5 -14.5q-8 0 -21 6l-204 112q-23 14 -23 41z" />
<glyph unicode="&#xfa;" d="M125 362v562q0 16 15.5 29.5t35.5 13.5q18 0 33.5 -13.5t15.5 -29.5v-562q0 -111 81 -195.5t193.5 -84.5t193.5 85t81 195v564q0 16 15.5 28.5t36 12.5t34.5 -12.5t14 -28.5v-564q0 -152 -110.5 -263t-264 -111t-264 112t-110.5 262zM356 1268q0 23 19 30l219 125 q8 4 16 4q18 0 28.5 -14t10.5 -33q0 -27 -22 -41l-205 -112q-8 -6 -21 -6q-18 0 -31.5 14.5t-13.5 32.5z" />
<glyph unicode="&#xfb;" d="M125 362v562q0 16 15.5 29.5t35.5 13.5q18 0 33.5 -13.5t15.5 -29.5v-562q0 -111 81 -195.5t193.5 -84.5t193.5 85t81 195v564q0 16 15.5 28.5t36 12.5t34.5 -12.5t14 -28.5v-564q0 -152 -110.5 -263t-264 -111t-264 112t-110.5 262zM229 1268q0 23 23 35l213 114 q16 10 34.5 10t35.5 -10l213 -112q23 -12 22 -41q0 -16 -11 -28.5t-28 -12.5l-18 6l-213 112l-213 -114q-2 0 -8.5 -3t-8.5 -3q-16 0 -28.5 13.5t-12.5 33.5z" />
<glyph unicode="&#xfc;" d="M125 362v562q0 16 15.5 29.5t35.5 13.5q18 0 33.5 -13.5t15.5 -29.5v-562q0 -111 81 -195.5t193.5 -84.5t193.5 85t81 195v564q0 16 15.5 28.5t36 12.5t34.5 -12.5t14 -28.5v-564q0 -152 -110.5 -263t-264 -111t-264 112t-110.5 262zM313 1290.5q0 28.5 19.5 47 t48.5 18.5t47 -18.5t18 -47t-18 -48t-47 -19.5t-48.5 19.5t-19.5 48zM553 1290.5q0 28.5 18.5 47t49.5 18.5q29 0 47 -18.5t18 -47t-18.5 -48t-46.5 -19.5q-31 0 -49.5 19.5t-18.5 48z" />
<glyph unicode="&#xfd;" horiz-adv-x="835" d="M35 932q0 20 18.5 34.5t40.5 14.5q33 0 39 -27l289 -788l280 788q14 27 39 27q20 0 39 -14.5t19 -34.5q0 -10 -2 -17l-324 -882l-43 -115q-12 -33 -45 -109.5t-59.5 -114.5t-65.5 -86t-83 -68.5t-93 -20.5q-47 0 -47 47t37 47q170 0 297 420l-332 882q-4 13 -4 17z M283 1268q0 23 18 30l219 125q8 4 17 4q18 0 28 -14t10 -33q0 -27 -22 -41l-205 -112q-8 -6 -20 -6q-18 0 -31.5 14.5t-13.5 32.5z" />
<glyph unicode="&#xfe;" horiz-adv-x="972" d="M135 -436v1962q0 18 14.5 30.5t34.5 12.5q23 0 37.5 -12.5t14.5 -30.5v-703q37 68 107.5 112t164.5 44q152 0 260.5 -109.5t108.5 -265.5v-237q0 -150 -110 -264.5t-255 -114.5q-90 0 -166 45t-110 110v-579q0 -16 -15.5 -30.5t-36 -14.5t-35 13.5t-14.5 31.5zM236 297 q0 -59 81.5 -137t186.5 -78q109 0 190.5 87t81.5 198v237q0 109 -83 195t-193 86q-104 0 -184 -77t-80 -204v-307z" />
<glyph unicode="&#xff;" horiz-adv-x="835" d="M35 932q0 20 18.5 34.5t40.5 14.5q33 0 39 -27l289 -788l280 788q14 27 39 27q20 0 39 -14.5t19 -34.5q0 -10 -2 -17l-324 -882l-43 -115q-12 -33 -45 -109.5t-59.5 -114.5t-65.5 -86t-83 -68.5t-93 -20.5q-47 0 -47 47t37 47q170 0 297 420l-332 882q-4 13 -4 17z M233 1290.5q0 28.5 19.5 47t48.5 18.5t47.5 -18.5t18.5 -47t-18.5 -48t-47.5 -19.5t-48.5 19.5t-19.5 48zM473 1290.5q0 28.5 18.5 47t49.5 18.5q29 0 47 -18.5t18 -47t-18.5 -48t-46.5 -19.5q-31 0 -49.5 19.5t-18.5 48z" />
<glyph unicode="&#x152;" horiz-adv-x="1724" d="M147 418v649q0 223 110 326.5t294 103.5q227 0 326 -147v102q0 45 49 45h710q41 0 41 -47q0 -51 -41 -51h-665v-602h315q41 0 41 -49q0 -45 -41 -46h-315v-604h665q41 0 41 -51q0 -47 -41 -47h-710q-49 0 -49 45v90q-98 -147 -326 -147q-184 0 -294 103.5t-110 326.5z M250 418q0 -332 309 -332q150 0 230.5 83t80.5 249v649q0 166 -80.5 249t-230.5 83q-309 0 -309 -332v-649z" />
<glyph unicode="&#x153;" horiz-adv-x="1572" d="M96 367v237q0 152 110.5 263.5t264.5 111.5q102 0 191.5 -55.5t136.5 -147.5q45 90 133 146.5t192 56.5q150 0 260.5 -106.5t110.5 -260.5q0 -57 -12.5 -92t-41 -49t-52 -17t-66.5 -3h-475v-86q0 -131 92 -208t244 -77q70 0 119 20.5t74.5 41t41.5 20.5q18 0 32.5 -14.5 t14.5 -36.5q0 -37 -87 -80t-208 -43q-129 0 -228 54t-146 151q-49 -92 -137.5 -148.5t-188.5 -56.5q-150 0 -262.5 113.5t-112.5 265.5zM197 367q0 -111 80.5 -198t193.5 -87t195 87t82 198v237q0 109 -82 195t-195 86t-193.5 -86t-80.5 -195v-237zM848 535h436 q70 0 91.5 14t21.5 59q0 111 -78 196t-197 85q-113 0 -193.5 -78t-80.5 -184v-92z" />
<glyph unicode="&#x178;" horiz-adv-x="1064" d="M43 1452q0 20 14.5 32.5t34.5 12.5q27 0 47 -37l393 -788l396 788q18 37 47 37q18 0 31.5 -12t13.5 -33q0 -23 -8 -39l-426 -833q-2 -4 -2 -15v-520q0 -45 -51.5 -45t-51.5 45v520q0 6 -4 15l-424 833q-10 27 -10 39zM346 1816.5q0 28.5 19.5 47t48 18.5t47 -18.5 t18.5 -47t-18.5 -48t-47 -19.5t-48 19.5t-19.5 48zM586 1816.5q0 28.5 18.5 47t48.5 18.5q29 0 47.5 -18.5t18.5 -47t-18.5 -48t-47.5 -19.5q-31 0 -49 19.5t-18 48z" />
<glyph unicode="&#x2c6;" horiz-adv-x="540" d="M0 1268q0 23 23 35l213 114q16 10 34.5 10t34.5 -10l213 -112q23 -12 23 -41q0 -16 -11.5 -28.5t-27.5 -12.5l-19 6l-213 112l-213 -114q-2 0 -8 -3t-8 -3q-16 0 -28.5 13.5t-12.5 33.5z" />
<glyph unicode="&#x2dc;" horiz-adv-x="618" d="M0 1307q0 45 62.5 77.5t119.5 32.5q51 0 131 -37t133.5 -37t90 32t47.5 32q14 0 24 -12.5t10 -26.5q0 -49 -58 -80t-114 -31q-51 0 -130.5 37t-137.5 37q-51 0 -94 -33.5t-51 -33.5q-33 0 -33 43z" />
<glyph unicode="&#x2000;" horiz-adv-x="1049" />
<glyph unicode="&#x2001;" horiz-adv-x="2099" />
<glyph unicode="&#x2002;" horiz-adv-x="1049" />
<glyph unicode="&#x2003;" horiz-adv-x="2099" />
<glyph unicode="&#x2004;" horiz-adv-x="699" />
<glyph unicode="&#x2005;" horiz-adv-x="524" />
<glyph unicode="&#x2006;" horiz-adv-x="349" />
<glyph unicode="&#x2007;" horiz-adv-x="349" />
<glyph unicode="&#x2008;" horiz-adv-x="262" />
<glyph unicode="&#x2009;" horiz-adv-x="419" />
<glyph unicode="&#x200a;" horiz-adv-x="116" />
<glyph unicode="&#x2010;" horiz-adv-x="819" d="M100 491.5q0 20.5 12.5 34t30.5 13.5h533q16 0 29.5 -13.5t13.5 -34t-13.5 -33t-29.5 -12.5h-533q-18 0 -30.5 12.5t-12.5 33z" />
<glyph unicode="&#x2011;" horiz-adv-x="819" d="M100 491.5q0 20.5 12.5 34t30.5 13.5h533q16 0 29.5 -13.5t13.5 -34t-13.5 -33t-29.5 -12.5h-533q-18 0 -30.5 12.5t-12.5 33z" />
<glyph unicode="&#x2012;" horiz-adv-x="819" d="M100 491.5q0 20.5 12.5 34t30.5 13.5h533q16 0 29.5 -13.5t13.5 -34t-13.5 -33t-29.5 -12.5h-533q-18 0 -30.5 12.5t-12.5 33z" />
<glyph unicode="&#x2013;" horiz-adv-x="942" d="M100 491.5q0 20.5 12.5 34t30.5 13.5h656q16 0 29.5 -13.5t13.5 -34t-13.5 -33t-29.5 -12.5h-656q-18 0 -30.5 12.5t-12.5 33z" />
<glyph unicode="&#x2014;" horiz-adv-x="1515" d="M100 491.5q0 20.5 12.5 34t30.5 13.5h1229q16 0 30.5 -13.5t14.5 -33.5q0 -18 -13 -32t-32 -14h-1229q-18 0 -30.5 12.5t-12.5 33z" />
<glyph unicode="&#x2018;" horiz-adv-x="317" d="M74 1282q0 53 76 213q10 23 32 23q14 0 27.5 -10.5t13.5 -26.5q0 -6 -4 -15l-39 -104q59 -18 60 -80q0 -35 -23.5 -59.5t-60.5 -24.5q-33 0 -57.5 24.5t-24.5 59.5z" />
<glyph unicode="&#x2019;" horiz-adv-x="315" d="M80 1434q0 35 24.5 59.5t59.5 24.5t58.5 -25t23.5 -59q0 -59 -74 -213q-12 -23 -33 -23q-16 0 -28.5 10.5t-12.5 26.5q0 10 2 14l39 105q-59 21 -59 80z" />
<glyph unicode="&#x201a;" horiz-adv-x="337" d="M86 72q0 35 23.5 59.5t60.5 24.5q33 0 57.5 -26t24.5 -58q0 -53 -76 -213q-10 -23 -33 -23q-14 0 -27.5 10.5t-13.5 24.5q0 10 4 16l37 105q-57 19 -57 80z" />
<glyph unicode="&#x201c;" horiz-adv-x="608" d="M76 1282q0 59 74 213q12 23 32 23q16 0 28.5 -10.5t12.5 -26.5q0 -10 -2 -15l-39 -104q25 -8 41.5 -30.5t16.5 -49.5q0 -35 -23.5 -59.5t-58.5 -24.5t-58.5 24.5t-23.5 59.5zM365 1282q0 53 75 213q10 23 33 23q14 0 27.5 -10.5t13.5 -26.5q0 -10 -4 -15l-37 -104 q25 -8 41 -30.5t16 -49.5q0 -35 -23.5 -59.5t-60.5 -24.5q-33 0 -57 24.5t-24 59.5z" />
<glyph unicode="&#x201d;" horiz-adv-x="606" d="M80 1434q0 35 23.5 59.5t60.5 24.5q35 0 58.5 -25t23.5 -59q0 -53 -76 -213q-10 -23 -31 -23q-16 0 -28.5 10.5t-12.5 26.5q0 10 2 14l39 105q-59 21 -59 80zM371 1434q0 35 23.5 59.5t60.5 24.5q33 0 57.5 -25t24.5 -59q0 -53 -76 -213q-10 -23 -33 -23 q-14 0 -27.5 10.5t-13.5 26.5q0 10 4 14l37 105q-57 23 -57 80z" />
<glyph unicode="&#x201e;" horiz-adv-x="628" d="M86 72q0 35 23.5 59.5t60.5 24.5q33 0 57.5 -26t24.5 -58q0 -53 -76 -213q-10 -23 -33 -23q-14 0 -27.5 10.5t-13.5 24.5q0 10 4 16l37 105q-57 19 -57 80zM377 72q0 35 23.5 59.5t58.5 24.5q33 0 57.5 -25t24.5 -59q0 -59 -74 -213q-10 -23 -33 -23q-16 0 -28.5 10.5 t-12.5 24.5q0 10 2 16l39 105q-57 17 -57 80z" />
<glyph unicode="&#x2022;" horiz-adv-x="630" d="M109 614q0 80 62 140.5t146 60.5q82 0 143.5 -60.5t61.5 -140.5q0 -82 -61.5 -142t-143.5 -60q-84 0 -146 60t-62 142z" />
<glyph unicode="&#x2026;" horiz-adv-x="1071" d="M86 71.5q0 34.5 23.5 59.5t60.5 25q33 0 57.5 -26t24.5 -58.5t-24.5 -58t-57.5 -25.5q-37 0 -60.5 24.5t-23.5 59zM453 71.5q0 34.5 23.5 59.5t60.5 25q33 0 57 -26t24 -58.5t-24.5 -58t-56.5 -25.5q-37 0 -60.5 24.5t-23.5 59zM819 71.5q0 34.5 23.5 59.5t60.5 25 q33 0 57.5 -26t24.5 -58.5t-24.5 -58t-57.5 -25.5q-37 0 -60.5 24.5t-23.5 59z" />
<glyph unicode="&#x202f;" horiz-adv-x="419" />
<glyph unicode="&#x2039;" horiz-adv-x="456" d="M76 567.5q0 18.5 16 44.5l189 353q14 20 41 20q20 0 36.5 -15.5t16.5 -33.5q0 -10 -6 -21l-189 -348l189 -346q6 -8 6 -20q0 -18 -17.5 -33.5t-40.5 -15.5q-25 0 -36 20l-189 350q-16 27 -16 45.5z" />
<glyph unicode="&#x203a;" horiz-adv-x="456" d="M82 201q0 12 6 20l188 346l-188 348q-6 10 -6 21q0 18 16.5 33.5t36.5 15.5q31 0 41 -20l191 -353q14 -29 14 -45t-14 -45l-191 -350q-12 -20 -37 -20q-20 0 -38.5 15.5t-18.5 33.5z" />
<glyph unicode="&#x205f;" horiz-adv-x="524" />
<glyph unicode="&#x20ac;" horiz-adv-x="1173" d="M72 571q0 47 41 47h137v209h-137q-41 0 -41 43q0 47 41 48h137v149q0 223 111.5 326.5t297.5 103.5q188 0 301 -97t113 -249q0 -53 -51 -53t-51 43q0 123 -85 190.5t-224 67.5q-309 0 -310 -332v-149h383q18 0 31.5 -14.5t13.5 -33t-13 -31t-32 -12.5h-383v-209h383 q16 0 30.5 -13t14.5 -31.5t-13 -32t-32 -13.5h-383v-116q0 -158 80 -242t230 -84q139 0 224 67.5t85 192.5q4 43 51 43q51 0 51 -53q0 -152 -112.5 -250t-301.5 -98q-186 0 -297.5 104.5t-111.5 319.5v116h-137q-41 0 -41 43z" />
<glyph unicode="&#x2122;" horiz-adv-x="1255" d="M86 1534q0 39 29 39h393q29 0 29 -39q0 -43 -29 -43h-154v-492q0 -33 -43 -32.5t-43 32.5v492h-153q-29 0 -29 43zM594 999v531q0 43 43 43q39 0 65 -57l148 -347l151 347q25 57 66 57t41 -43v-531q0 -33 -41 -32q-43 0 -43 32v392l-141 -328q-10 -25 -33 -25 q-20 0 -29 25l-141 332v-396q0 -33 -43 -33t-43 33z" />
<glyph unicode="&#x25fc;" horiz-adv-x="983" d="M0 0v983h983v-983h-983z" />
</font>
</defs>
</svg>
